Loading...
Error

(Cool Jazz) Duke Ellington - Duke Ellington's Finest Hour (2002) [FLAC (Tracks+.Cue), Lossless]

Статистика раздачи
Размер:  260 MB   |    Зарегистрирован:  11 месяцев   |    Скачан:  1 раз

Полного источника не было: 7 месяцев

Сидов:  0  |  0 KB/s  ]   Личеров:  0  |  0 KB/s  ]

* - сиды/пиры с внешних источников

   
 
Автор Сообщение

Бишеп Пол:Муж

29-Сен-2021 14:36

Duke Ellington - Duke Ellington's Finest Hour

Жанр: Cool Jazz
Год выпуска: 2002
Носитель: CD
Производитель диска: Verve Records - 589 415-2
Аудиокодек: FLAC
Тип рипа: Tracks+.CUE
Битрейт аудио: lossless
Продолжительность: 01:03:15


Треклист:
01. East St. Louis Toodle-o (02:55)
02. Black and Tan Fantasy (03:20)
03. Jubilee Stomp (02:47)
04. Black Beauty (03:15)
05. The Mooche (03:14)
06. Rent Party Blues (03:27)
07. Double Check Stomp (02:53)
08. Mood Indigo (02:58)
09. Creole Rhapsody, Part 1 (03:10)
10. Creole Rhapsody, Part 2 (03:22)
11. Stompy Jones (06:40)
12. Self Portrait (of the Bean) (03:54)
13. In a Sentimental Mood (04:16)
14. Take the 'A' Train (04:57)
15. Prelude to a Kiss (04:29)
16. Sophisticated Lady/Solitude (04:45)
17. Satin Doll (02:53)

Exact Audio Copy V1.6 from 23. October 2020 

EAC extraction logfile from 19. June 2021, 15:59

Duke Ellington / Duke Ellington's Finest Hour

Used drive : HL-DT-STDVDRAM GE20LU10 Adapter: 1 ID: 0

Read mode : Secure
Utilize accurate stream : Yes
Defeat audio cache : Yes
Make use of C2 pointers : No

Read offset correction : 667
Overread into Lead-In and Lead-Out : No
Fill up missing offset samples with silence : Yes
Delete leading and trailing silent blocks : No
Null samples used in CRC calculations : Yes
Used interface : Native Win32 interface for Win NT & 2000
Gap handling : Appended to previous track

Used output format : User Defined Encoder
Selected bitrate : 1024 kBit/s
Quality : High
Add ID3 tag : No
Command line compressor : C:\Program Files (x86)\Exact Audio Copy\FLAC\FLAC.EXE
Additional command line options : -8 -V -T "ARTIST=%artist%" -T "TITLE=%title%" -T "ALBUM=%albumtitle%" -T "DATE=%year%" -T "TRACKNUMBER=%tracknr%" -T "GENRE=%genre%" -T "PERFORMER=%albuminterpret%" -T "COMPOSER=%composer%" -T "ALBUMARTIST=%albumartist%" -T "DISCNUMBER=%cdnumber%" -T "TOTALDISCS=%totalcds%" -T "TOTALTRACKS=%numtracks%" -T "COMMENT=%comment%" %source% -o %dest%

TOC of the extracted CD

Track | Start | Length | Start sector | End sector
---------------------------------------------------------
1 | 0:00.00 | 2:54.62 | 0 | 13111
2 | 2:54.62 | 3:19.58 | 13112 | 28094
3 | 6:14.45 | 2:46.42 | 28095 | 40586
4 | 9:01.12 | 3:14.53 | 40587 | 55189
5 | 12:15.65 | 3:13.47 | 55190 | 69711
6 | 15:29.37 | 3:27.35 | 69712 | 85271
7 | 18:56.72 | 2:53.25 | 85272 | 98271
8 | 21:50.22 | 2:58.18 | 98272 | 111639
9 | 24:48.40 | 3:09.67 | 111640 | 125881
10 | 27:58.32 | 3:21.73 | 125882 | 141029
11 | 31:20.30 | 6:39.47 | 141030 | 171001
12 | 38:00.02 | 3:54.20 | 171002 | 188571
13 | 41:54.22 | 4:16.20 | 188572 | 207791
14 | 46:10.42 | 4:56.53 | 207792 | 230044
15 | 51:07.20 | 4:29.30 | 230045 | 250249
16 | 55:36.50 | 4:45.20 | 250250 | 271644
17 | 60:21.70 | 2:52.67 | 271645 | 284611

Track 1

Filename D:\rips\Duke Ellington - Duke Ellington's Finest Hour (2002) [FLAC] {Verve 589 415-2}\01 - East St. Louis Toodle-o.wav

Pre-gap length 0:00:02.00

Peak level 98.1 %
Extraction speed 1.0 X
Track quality 100.0 %
Test CRC 24530F58
Copy CRC 24530F58
Accurately ripped (confidence 4) [06F64D95] (AR v2)
Copy OK

Track 2

Filename D:\rips\Duke Ellington - Duke Ellington's Finest Hour (2002) [FLAC] {Verve 589 415-2}\02 - Black and Tan Fantasy.wav

Pre-gap length 0:00:02.62

Peak level 91.9 %
Extraction speed 1.1 X
Track quality 100.0 %
Test CRC D6E2DA81
Copy CRC D6E2DA81
Accurately ripped (confidence 4) [432A1E50] (AR v2)
Copy OK

Track 3

Filename D:\rips\Duke Ellington - Duke Ellington's Finest Hour (2002) [FLAC] {Verve 589 415-2}\03 - Jubilee Stomp.wav

Pre-gap length 0:00:02.60

Peak level 99.6 %
Extraction speed 1.1 X
Track quality 100.0 %
Test CRC 283D2E42
Copy CRC 283D2E42
Accurately ripped (confidence 4) [73906A09] (AR v2)
Copy OK

Track 4

Filename D:\rips\Duke Ellington - Duke Ellington's Finest Hour (2002) [FLAC] {Verve 589 415-2}\04 - Black Beauty.wav

Pre-gap length 0:00:02.29

Peak level 99.6 %
Extraction speed 1.3 X
Track quality 100.0 %
Test CRC 06B8082C
Copy CRC 06B8082C
Accurately ripped (confidence 4) [7924021D] (AR v2)
Copy OK

Track 5

Filename D:\rips\Duke Ellington - Duke Ellington's Finest Hour (2002) [FLAC] {Verve 589 415-2}\05 - The Mooche.wav

Pre-gap length 0:00:02.60

Peak level 78.0 %
Extraction speed 1.3 X
Track quality 100.0 %
Test CRC E20A98EE
Copy CRC E20A98EE
Accurately ripped (confidence 4) [832573B2] (AR v2)
Copy OK

Track 6

Filename D:\rips\Duke Ellington - Duke Ellington's Finest Hour (2002) [FLAC] {Verve 589 415-2}\06 - Rent Party Blues.wav

Pre-gap length 0:00:02.49

Peak level 74.6 %
Extraction speed 1.2 X
Track quality 99.9 %
Test CRC 8627C183
Copy CRC 8627C183
Accurately ripped (confidence 4) [F44F3CE8] (AR v2)
Copy OK

Track 7

Filename D:\rips\Duke Ellington - Duke Ellington's Finest Hour (2002) [FLAC] {Verve 589 415-2}\07 - Double Check Stomp.wav

Pre-gap length 0:00:02.62

Peak level 81.1 %
Extraction speed 1.4 X
Track quality 100.0 %
Test CRC 2AD57620
Copy CRC 2AD57620
Accurately ripped (confidence 4) [9B225A9B] (AR v2)
Copy OK

Track 8

Filename D:\rips\Duke Ellington - Duke Ellington's Finest Hour (2002) [FLAC] {Verve 589 415-2}\08 - Mood Indigo.wav

Pre-gap length 0:00:02.76

Peak level 70.4 %
Extraction speed 1.5 X
Track quality 100.0 %
Test CRC 8778501B
Copy CRC 8778501B
Accurately ripped (confidence 4) [03AD296C] (AR v2)
Copy OK

Track 9

Filename D:\rips\Duke Ellington - Duke Ellington's Finest Hour (2002) [FLAC] {Verve 589 415-2}\09 - Creole Rhapsody, Part 1.wav

Pre-gap length 0:00:02.84

Peak level 76.4 %
Extraction speed 1.3 X
Track quality 99.9 %
Test CRC 478A2E66
Copy CRC 478A2E66
Accurately ripped (confidence 4) [5F706AEB] (AR v2)
Copy OK

Track 10

Filename D:\rips\Duke Ellington - Duke Ellington's Finest Hour (2002) [FLAC] {Verve 589 415-2}\10 - Creole Rhapsody, Part 2.wav

Pre-gap length 0:00:01.69

Peak level 86.4 %
Extraction speed 1.7 X
Track quality 100.0 %
Test CRC 4A358D9A
Copy CRC 4A358D9A
Accurately ripped (confidence 4) [3B679C54] (AR v2)
Copy OK

Track 11

Filename D:\rips\Duke Ellington - Duke Ellington's Finest Hour (2002) [FLAC] {Verve 589 415-2}\11 - Stompy Jones.wav

Pre-gap length 0:00:02.40

Peak level 93.7 %
Extraction speed 1.9 X
Track quality 100.0 %
Test CRC 78380D74
Copy CRC 78380D74
Accurately ripped (confidence 4) [C3E87BAE] (AR v2)
Copy OK

Track 12

Filename D:\rips\Duke Ellington - Duke Ellington's Finest Hour (2002) [FLAC] {Verve 589 415-2}\12 - Self Portrait (of the Bean).wav

Pre-gap length 0:00:02.69

Peak level 85.9 %
Extraction speed 1.8 X
Track quality 100.0 %
Test CRC 66731233
Copy CRC 66731233
Accurately ripped (confidence 4) [B6EA43A0] (AR v2)
Copy OK

Track 13

Filename D:\rips\Duke Ellington - Duke Ellington's Finest Hour (2002) [FLAC] {Verve 589 415-2}\13 - In a Sentimental Mood.wav

Pre-gap length 0:00:02.40

Peak level 100.0 %
Extraction speed 1.7 X
Track quality 99.9 %
Test CRC B2D76828
Copy CRC B2D76828
Accurately ripped (confidence 4) [CE54E4CC] (AR v2)
Copy OK

Track 14

Filename D:\rips\Duke Ellington - Duke Ellington's Finest Hour (2002) [FLAC] {Verve 589 415-2}\14 - Take the ''A'' Train.wav

Pre-gap length 0:00:02.02

Peak level 100.0 %
Extraction speed 2.1 X
Track quality 100.0 %
Test CRC 0E2D1FD0
Copy CRC 0E2D1FD0
Accurately ripped (confidence 4) [3C99D332] (AR v2)
Copy OK

Track 15

Filename D:\rips\Duke Ellington - Duke Ellington's Finest Hour (2002) [FLAC] {Verve 589 415-2}\15 - Prelude to a Kiss.wav

Pre-gap length 0:00:02.40

Peak level 99.9 %
Extraction speed 2.1 X
Track quality 100.0 %
Test CRC 07C2656B
Copy CRC 07C2656B
Accurately ripped (confidence 4) [CA9A73DB] (AR v2)
Copy OK

Track 16

Filename D:\rips\Duke Ellington - Duke Ellington's Finest Hour (2002) [FLAC] {Verve 589 415-2}\16 - Sophisticated Lady , Solitude.wav

Pre-gap length 0:00:02.46

Peak level 56.1 %
Extraction speed 2.2 X
Track quality 100.0 %
Test CRC 76F30096
Copy CRC 76F30096
Accurately ripped (confidence 4) [CD458A62] (AR v2)
Copy OK

Track 17

Filename D:\rips\Duke Ellington - Duke Ellington's Finest Hour (2002) [FLAC] {Verve 589 415-2}\17 - Satin Doll.wav

Pre-gap length 0:00:01.97

Peak level 84.7 %
Extraction speed 2.2 X
Track quality 100.0 %
Test CRC 5B82CB6D
Copy CRC 5B82CB6D
Accurately ripped (confidence 4) [1FA81D85] (AR v2)
Copy OK

All tracks accurately ripped

No errors occurred

End of status report

---- CUETools DB Plugin V2.1.6

[CTDB TOCID: xtQOhhTqkHowCUDGVH8aQniOcJo-] found
Submit result: xtQOhhTqkHowCUDGVH8aQniOcJo- has been confirmed
Track | CTDB Status
1 | (26/26) Accurately ripped
2 | (26/26) Accurately ripped
3 | (26/26) Accurately ripped
4 | (26/26) Accurately ripped
5 | (26/26) Accurately ripped
6 | (26/26) Accurately ripped
7 | (26/26) Accurately ripped
8 | (26/26) Accurately ripped
9 | (26/26) Accurately ripped
10 | (26/26) Accurately ripped
11 | (26/26) Accurately ripped
12 | (26/26) Accurately ripped
13 | (26/26) Accurately ripped
14 | (26/26) Accurately ripped
15 | (26/26) Accurately ripped
16 | (26/26) Accurately ripped
17 | (26/26) Accurately ripped

==== Log checksum 622AFDA0D6223030A49A27B08DEA71122772F808759B986025520980EF6CB435 ====
REM GENRE Jazz 
REM DATE 2002
REM DISCID ED0ED211
REM COMMENT "ExactAudioCopy v1.6"
CATALOG 0731458941521
PERFORMER "Duke Ellington"
TITLE "Duke Ellington's Finest Hour"
FILE "01 - East St. Louis Toodle-o.wav" WAVE
TRACK 01 AUDIO
TITLE "East St. Louis Toodle-o"
PERFORMER "Duke Ellington"
ISRC USMC13004110
INDEX 01 00:00:00
TRACK 02 AUDIO
TITLE "Black and Tan Fantasy"
PERFORMER "Duke Ellington"
ISRC USMC13022299
INDEX 00 02:52:15
FILE "02 - Black and Tan Fantasy.wav" WAVE
INDEX 01 00:00:00
TRACK 03 AUDIO
TITLE "Jubilee Stomp"
PERFORMER "Duke Ellington"
ISRC USMC13027091
INDEX 00 03:17:13
FILE "03 - Jubilee Stomp.wav" WAVE
INDEX 01 00:00:00
TRACK 04 AUDIO
TITLE "Black Beauty"
PERFORMER "Duke Ellington"
ISRC USMC13027094
INDEX 00 02:44:20
FILE "04 - Black Beauty.wav" WAVE
INDEX 01 00:00:00
TRACK 05 AUDIO
TITLE "The Mooche"
PERFORMER "Duke Ellington"
ISRC USMC13028359
INDEX 00 03:12:08
FILE "05 - The Mooche.wav" WAVE
INDEX 01 00:00:00
TRACK 06 AUDIO
TITLE "Rent Party Blues"
PERFORMER "Duke Ellington"
ISRC USMC13029381
INDEX 00 03:11:10
FILE "06 - Rent Party Blues.wav" WAVE
INDEX 01 00:00:00
TRACK 07 AUDIO
TITLE "Double Check Stomp"
PERFORMER "Duke Ellington"
ISRC USMC13032612
INDEX 00 03:24:63
FILE "07 - Double Check Stomp.wav" WAVE
INDEX 01 00:00:00
TRACK 08 AUDIO
TITLE "Mood Indigo"
PERFORMER "Duke Ellington"
ISRC USMC13034928
INDEX 00 02:50:43
FILE "08 - Mood Indigo.wav" WAVE
INDEX 01 00:00:00
TRACK 09 AUDIO
TITLE "Creole Rhapsody, Part 1"
PERFORMER "Duke Ellington"
ISRC USMC13135939
INDEX 00 02:55:30
FILE "09 - Creole Rhapsody, Part 1.wav" WAVE
INDEX 01 00:00:00
TRACK 10 AUDIO
TITLE "Creole Rhapsody, Part 2"
PERFORMER "Duke Ellington"
ISRC USMC13135940
INDEX 00 03:08:15
FILE "10 - Creole Rhapsody, Part 2.wav" WAVE
INDEX 01 00:00:00
TRACK 11 AUDIO
TITLE "Stompy Jones"
PERFORMER "Duke Ellington"
ISRC USPR35900027
INDEX 00 03:19:43
FILE "11 - Stompy Jones.wav" WAVE
INDEX 01 00:00:00
TRACK 12 AUDIO
TITLE "Self Portrait (of the Bean)"
PERFORMER "Duke Ellington"
ISRC USMC16355036
INDEX 00 06:36:70
FILE "12 - Self Portrait (of the Bean).wav" WAVE
INDEX 01 00:00:00
TRACK 13 AUDIO
TITLE "In a Sentimental Mood"
PERFORMER "Duke Ellington"
ISRC USMC16351954
INDEX 00 03:51:65
FILE "13 - In a Sentimental Mood.wav" WAVE
INDEX 01 00:00:00
TRACK 14 AUDIO
TITLE "Take the 'A' Train"
PERFORMER "Duke Ellington"
ISRC USPR36686940
INDEX 00 04:14:18
FILE "14 - Take the 'A' Train.wav" WAVE
INDEX 01 00:00:00
TRACK 15 AUDIO
TITLE "Prelude to a Kiss"
PERFORMER "Duke Ellington"
ISRC USPR36686946
INDEX 00 04:54:23
FILE "15 - Prelude to a Kiss.wav" WAVE
INDEX 01 00:00:00
TRACK 16 AUDIO
TITLE "Sophisticated Lady/Solitude"
PERFORMER "Duke Ellington"
ISRC USGR10110983
INDEX 00 04:26:70
FILE "16 - Sophisticated Lady,Solitude.wav" WAVE
INDEX 01 00:00:00
TRACK 17 AUDIO
TITLE "Satin Doll"
PERFORMER "Duke Ellington"
ISRC USMC17252626
INDEX 00 04:43:22
FILE "17 - Satin Doll.wav" WAVE
INDEX 01 00:00:00

Этот торрент недоступен для скачивания без регистрации, однако доступен по публичной magnet-ссылке (источники с публичных трекеров). Перед использованием ссылки прочтите, пожалуйста Пользовательское соглашение, а также как можно дольше оставайтесь на раздаче! Для того, чтобы скачать сам торрент-файл (который видит больше источников), а также для того, чтобы поблагодарить релизера, вам необходимо зарегистрироваться. Если регистрироваться лень - вы можете также попробовать скачать релиз по нашим партнерским ссылкам ниже. Кроме того, зарегистрированным пользователям не показывается всплывающая реклама при скачивании.

[underver.se].t223061.torrent
Трекер: Зарегистрирован   [ 29.09.2021 14:36 ]  
Статус: проверено (by Бишеп at 29.09.2021 14:36)
Поблагодарили: пока никто не поблагодарил...
Тип торрента: публичный - доступные источники с открытых трекеров: 
Размер: 260 MB (занимает 0.06 DVDR, для записи нужно 1 болванка DVDR/RW)
 
 

Яндекс.Метрика powered by Sphinx


В Н И М А Н И Е
Сайт не распространяет и не хранит электронные версии произведений, а лишь бесплатно и без коммерческой выгоды (не требуя взамен платы,
SMS и т.д.) предоставляет доступ к создаваемому пользователями каталогу ссылок на торрент-файлы, которые содержат только списки хеш-сумм.
Убедительная просьба с жалобами обращаться напрямую к пользователю, разместившему торрент файл.

Вверх