Loading...
Error

(Jazz, Hard Bop) Gary Peacock - The Beginnings: West Coast Years 1959-1962 (2020) [FLAC (Tracks+.Cue), Lossless]

Статистика раздачи
Размер:  485 MB   |    Зарегистрирован:  11 месяцев   |    Скачан:  2 раза

Полного источника не было: 7 месяцев

Сидов:  0  |  0 KB/s  ]   Личеров:  0  |  0 KB/s  ]

* - сиды/пиры с внешних источников

   
 
Автор Сообщение

Бишеп Пол:Муж

30-Сен-2021 09:42

Gary Peacock - The Beginnings: West Coast Years 1959-1962

Жанр: Jazz, Hard Bop
Год выпуска: 2020
Носитель: CD
Производитель диска: Fresh Sound Records - FSR-CD 996
Аудиокодек: FLAC
Тип рипа: Tracks+.CUE
Битрейт аудио: lossless
Продолжительность: 01:19:14


Треклист:
01. Willow Weep for Me (07:30)
02. Blues in the Surf (05:02)
03. Stranger (04:02)
04. I'm Gonna Go Fishin' (11:14)
05. Donkey (04:38)
06. Not Yet (07:56)
07. Free Too Long (07:32)
08. Liddledabllduya (03:58)
09. Form (10:08)
10. I Love You (05:16)
11. New Groove (06:48)
12. Blues for Home (05:10)

Exact Audio Copy V1.3 from 2. September 2016 

EAC extraction logfile from 20. June 2021, 14:52

Gary Peacock / The Beginnings - West Coast Years 1959-1962

Used drive : HL-DT-STBDDVDRW UH12LS28 Adapter: 1 ID: 0

Read mode : Secure
Utilize accurate stream : Yes
Defeat audio cache : Yes
Make use of C2 pointers : No

Read offset correction : 667
Overread into Lead-In and Lead-Out : No
Fill up missing offset samples with silence : Yes
Delete leading and trailing silent blocks : No
Null samples used in CRC calculations : Yes
Used interface : Native Win32 interface for Win NT & 2000
Gap handling : Appended to previous track

Used output format : User Defined Encoder
Selected bitrate : 1024 kBit/s
Quality : High
Add ID3 tag : No
Command line compressor : K:\Program Files (x86)\Exact Audio Copy\Flac\flac.exe
Additional command line options : -8 -V -T "ARTIST=%artist%" -T "TITLE=%title%" -T "ALBUM=%albumtitle%" -T "DATE=%year%" -T "TRACKNUMBER=%tracknr%" -T "GENRE=%genre%" -T "PERFORMER=%albuminterpret%" -T "COMPOSER=%composer%" %haslyrics%--tag-from-file=LYRICS="%lyricsfile%"%haslyrics% -T "ALBUMARTIST=%albumartist%" -T "DISCNUMBER=%cdnumber%" -T "TOTALDISCS=%totalcds%" -T "TOTALTRACKS=%numtracks%" -T "COMMENT=%comment%" %source% -o %dest%

TOC of the extracted CD

Track | Start | Length | Start sector | End sector
---------------------------------------------------------
1 | 0:00.00 | 7:29.53 | 0 | 33727
2 | 7:29.53 | 5:02.24 | 33728 | 56401
3 | 12:32.02 | 4:01.55 | 56402 | 74531
4 | 16:33.57 | 11:14.03 | 74532 | 125084
5 | 27:47.60 | 4:38.02 | 125085 | 145936
6 | 32:25.62 | 7:55.45 | 145937 | 181606
7 | 40:21.32 | 7:32.34 | 181607 | 215540
8 | 47:53.66 | 3:57.47 | 215541 | 233362
9 | 51:51.38 | 10:08.27 | 233363 | 278989
10 | 61:59.65 | 5:15.64 | 278990 | 302678
11 | 67:15.54 | 6:47.42 | 302679 | 333245
12 | 74:03.21 | 5:10.26 | 333246 | 356521

Track 1

Filename E:\EAC music folders\Gary Peacock - The Beginnings West Coast Years 1959-1962 (2020) [FLAC] {Fresh Sound Records FSR-CD 996}\01 Willow Weep for Me.wav

Pre-gap length 0:00:02.00

Peak level 96.5 %
Extraction speed 1.4 X
Track quality 100.0 %
Test CRC F444FEBF
Copy CRC F444FEBF
Track not present in AccurateRip database
Copy OK

Track 2

Filename E:\EAC music folders\Gary Peacock - The Beginnings West Coast Years 1959-1962 (2020) [FLAC] {Fresh Sound Records FSR-CD 996}\02 Blues in the Surf.wav

Pre-gap length 0:00:01.53

Peak level 96.5 %
Extraction speed 1.5 X
Track quality 100.0 %
Test CRC 31AF27EB
Copy CRC 31AF27EB
Track not present in AccurateRip database
Copy OK

Track 3

Filename E:\EAC music folders\Gary Peacock - The Beginnings West Coast Years 1959-1962 (2020) [FLAC] {Fresh Sound Records FSR-CD 996}\03 Stranger.wav

Pre-gap length 0:00:00.66

Peak level 96.4 %
Extraction speed 1.6 X
Track quality 100.0 %
Test CRC 0CEC6197
Copy CRC 0CEC6197
Track not present in AccurateRip database
Copy OK

Track 4

Filename E:\EAC music folders\Gary Peacock - The Beginnings West Coast Years 1959-1962 (2020) [FLAC] {Fresh Sound Records FSR-CD 996}\04 I’m Gonna Go Fishin’.wav

Pre-gap length 0:00:01.17

Peak level 96.3 %
Extraction speed 1.9 X
Track quality 100.0 %
Test CRC CD1891A7
Copy CRC CD1891A7
Track not present in AccurateRip database
Copy OK

Track 5

Filename E:\EAC music folders\Gary Peacock - The Beginnings West Coast Years 1959-1962 (2020) [FLAC] {Fresh Sound Records FSR-CD 996}\05 Donkey.wav

Pre-gap length 0:00:01.45

Peak level 92.4 %
Extraction speed 1.9 X
Track quality 100.0 %
Test CRC 71C321B6
Copy CRC 71C321B6
Track not present in AccurateRip database
Copy OK

Track 6

Filename E:\EAC music folders\Gary Peacock - The Beginnings West Coast Years 1959-1962 (2020) [FLAC] {Fresh Sound Records FSR-CD 996}\06 Not Yet.wav

Pre-gap length 0:00:01.32

Peak level 96.4 %
Extraction speed 2.2 X
Track quality 100.0 %
Test CRC 03CB413C
Copy CRC 03CB413C
Track not present in AccurateRip database
Copy OK

Track 7

Filename E:\EAC music folders\Gary Peacock - The Beginnings West Coast Years 1959-1962 (2020) [FLAC] {Fresh Sound Records FSR-CD 996}\07 Free Too Long.wav

Pre-gap length 0:00:01.45

Peak level 96.4 %
Extraction speed 2.3 X
Track quality 100.0 %
Test CRC 6220A69F
Copy CRC 6220A69F
Track not present in AccurateRip database
Copy OK

Track 8

Filename E:\EAC music folders\Gary Peacock - The Beginnings West Coast Years 1959-1962 (2020) [FLAC] {Fresh Sound Records FSR-CD 996}\08 Liddledabllduya.wav

Pre-gap length 0:00:01.36

Peak level 93.9 %
Extraction speed 2.3 X
Track quality 100.0 %
Test CRC F9B24E20
Copy CRC F9B24E20
Track not present in AccurateRip database
Copy OK

Track 9

Filename E:\EAC music folders\Gary Peacock - The Beginnings West Coast Years 1959-1962 (2020) [FLAC] {Fresh Sound Records FSR-CD 996}\09 Form.wav

Pre-gap length 0:00:01.33

Peak level 96.2 %
Extraction speed 2.6 X
Track quality 100.0 %
Test CRC 8A93F7CA
Copy CRC 8A93F7CA
Track not present in AccurateRip database
Copy OK

Track 10

Filename E:\EAC music folders\Gary Peacock - The Beginnings West Coast Years 1959-1962 (2020) [FLAC] {Fresh Sound Records FSR-CD 996}\10 I Love You.wav

Pre-gap length 0:00:01.68

Peak level 96.4 %
Extraction speed 2.6 X
Track quality 100.0 %
Test CRC 6D0F6FEB
Copy CRC 6D0F6FEB
Track not present in AccurateRip database
Copy OK

Track 11

Filename E:\EAC music folders\Gary Peacock - The Beginnings West Coast Years 1959-1962 (2020) [FLAC] {Fresh Sound Records FSR-CD 996}\11 New Groove.wav

Pre-gap length 0:00:01.01

Peak level 96.4 %
Extraction speed 2.7 X
Track quality 100.0 %
Test CRC 0AD702E8
Copy CRC 0AD702E8
Track not present in AccurateRip database
Copy OK

Track 12

Filename E:\EAC music folders\Gary Peacock - The Beginnings West Coast Years 1959-1962 (2020) [FLAC] {Fresh Sound Records FSR-CD 996}\12 Blues for Home.wav

Pre-gap length 0:00:02.09

Peak level 92.5 %
Extraction speed 2.7 X
Track quality 100.0 %
Test CRC 14699D19
Copy CRC 14699D19
Track not present in AccurateRip database
Copy OK

None of the tracks are present in the AccurateRip database

No errors occurred

End of status report

---- CUETools DB Plugin V2.1.6

[CTDB TOCID: xk..LszVLejM4oWoaautTrwr9xU-] disk not present in database
Submit result: xk..LszVLejM4oWoaautTrwr9xU- has been uploaded

==== Log checksum 3DBA2826FEC83F39D2E7DCD70A154F9F37E074D775BF1EF3FC5D893628A52A33 ====
REM GENRE Jazz 
REM DATE 2020
REM DISCID B312910C
REM COMMENT "ExactAudioCopy v1.3"
PERFORMER "Gary Peacock"
TITLE "The Beginnings: West Coast Years 1959-1962"
FILE "01 - Willow Weep for Me.wav" WAVE
TRACK 01 AUDIO
TITLE "Willow Weep for Me"
PERFORMER "Gary Peacock"
INDEX 01 00:00:00
TRACK 02 AUDIO
TITLE "Blues in the Surf"
PERFORMER "Gary Peacock"
INDEX 00 07:28:13
FILE "02 - Blues in the Surf.wav" WAVE
INDEX 01 00:00:00
TRACK 03 AUDIO
TITLE "Stranger"
PERFORMER "Gary Peacock"
INDEX 00 05:01:49
FILE "03 - Stranger.wav" WAVE
INDEX 01 00:00:00
TRACK 04 AUDIO
TITLE "I'm Gonna Go Fishin'"
PERFORMER "Gary Peacock"
INDEX 00 04:00:42
FILE "04 - I'm Gonna Go Fishin'.wav" WAVE
INDEX 01 00:00:00
TRACK 05 AUDIO
TITLE "Donkey"
PERFORMER "Gary Peacock"
INDEX 00 11:12:44
FILE "05 - Donkey.wav" WAVE
INDEX 01 00:00:00
TRACK 06 AUDIO
TITLE "Not Yet"
PERFORMER "Gary Peacock"
INDEX 00 04:36:53
FILE "06 - Not Yet.wav" WAVE
INDEX 01 00:00:00
TRACK 07 AUDIO
TITLE "Free Too Long"
PERFORMER "Gary Peacock"
INDEX 00 07:54:11
FILE "07 - Free Too Long.wav" WAVE
INDEX 01 00:00:00
TRACK 08 AUDIO
TITLE "Liddledabllduya"
PERFORMER "Gary Peacock"
INDEX 00 07:31:07
FILE "08 - Liddledabllduya.wav" WAVE
INDEX 01 00:00:00
TRACK 09 AUDIO
TITLE "Form"
PERFORMER "Gary Peacock"
INDEX 00 03:56:22
FILE "09 - Form.wav" WAVE
INDEX 01 00:00:00
TRACK 10 AUDIO
TITLE "I Love You"
PERFORMER "Gary Peacock"
INDEX 00 10:06:51
FILE "10 - I Love You.wav" WAVE
INDEX 01 00:00:00
TRACK 11 AUDIO
TITLE "New Groove"
PERFORMER "Gary Peacock"
INDEX 00 05:14:63
FILE "11 - New Groove.wav" WAVE
INDEX 01 00:00:00
TRACK 12 AUDIO
TITLE "Blues for Home"
PERFORMER "Gary Peacock"
INDEX 00 06:45:35
FILE "12 - Blues for Home.wav" WAVE
INDEX 01 00:00:00

Этот торрент недоступен для скачивания без регистрации, однако доступен по публичной magnet-ссылке (источники с публичных трекеров). Перед использованием ссылки прочтите, пожалуйста Пользовательское соглашение, а также как можно дольше оставайтесь на раздаче! Для того, чтобы скачать сам торрент-файл (который видит больше источников), а также для того, чтобы поблагодарить релизера, вам необходимо зарегистрироваться. Если регистрироваться лень - вы можете также попробовать скачать релиз по нашим партнерским ссылкам ниже. Кроме того, зарегистрированным пользователям не показывается всплывающая реклама при скачивании.

[underver.se].t223120.torrent
Трекер: Зарегистрирован   [ 30.09.2021 09:42 ]  
Статус: проверено (by Бишеп at 30.09.2021 09:42)
Поблагодарили: пока никто не поблагодарил...
Тип торрента: публичный - доступные источники с открытых трекеров: 
Размер: 485 MB (занимает 0.11 DVDR, для записи нужно 1 болванка DVDR/RW)
 
 

Яндекс.Метрика powered by Sphinx


В Н И М А Н И Е
Сайт не распространяет и не хранит электронные версии произведений, а лишь бесплатно и без коммерческой выгоды (не требуя взамен платы,
SMS и т.д.) предоставляет доступ к создаваемому пользователями каталогу ссылок на торрент-файлы, которые содержат только списки хеш-сумм.
Убедительная просьба с жалобами обращаться напрямую к пользователю, разместившему торрент файл.

Вверх