Loading...
Error

(Jazz) New Orleans Rhythm Kings And Jelly Roll Morton - New Orleans Rhythm Kings And Jelly Roll Morton (1992) [FLAC (Tracks+.Cue), Lossless]

Статистика раздачи
Размер:  201 MB   |    Зарегистрирован:  11 месяцев   |    Скачан:  3 раза

Полного источника не было: 6 месяцев

Сидов:  0  |  0 KB/s  ]   Личеров:  0  |  0 KB/s  ]

* - сиды/пиры с внешних источников

   
 
Автор Сообщение

Бишеп Пол:Муж

06-Окт-2021 14:23

New Orleans Rhythm Kings And Jelly Roll Morton - New Orleans Rhythm Kings And Jelly Roll Morton

Жанр: Jazz
Год выпуска: 1992
Носитель: CD
Производитель диска: Milestone - M-47020-2
Аудиокодек: FLAC
Тип рипа: Tracks+.CUE
Битрейт аудио: lossless
Продолжительность: 01:10:52


01. Eccentric (Robinson) - 02:54
02. Farewell Blues (Mares, Roppolo, Schoebel) - 02:40
03. Discontented Blues (Miller, Schoebel) - 02:43
04. Bugle Call Rag (Meyers, Pettis, Schoebel) - 02:20
05. Panama (Tyers) - 02:38
06. Tiger Rag (DaCosta, Edwards, LaRocca ...) - 02:28
07. Livery Stable Blues (Lee, Lopez, Nunez) - 02:27
08. Oriental (Myers, Schoebel) - 02:37
09. Sweet Lovin' Man [1st Take] (Hardin, Melrose) - 02:39
10. That's A-Plenty [2nd Take] (Gilbert, Pollack) - 02:38
11. Shim-Me-Sha-Wabble (Williams) - 03:02
12. Weary Blues (Matthews) - 02:44
13. That Da Da Strain (Dowell, Medina) - 02:31
14. Wolverine Blues [3rd Take] (Morton, Spikes, Spikes) - 03:06
15. Maple Leaf Rag (Joplin) - 02:34
16. Tin Roof Blues [3rd Take] (New Orleans Rhythm Kings) - 03:00
17. Sobbin' Blues (Berton, Kassel) - 02:51
18. Marguerite (Novak, Pierce) - 03:12
19. Angry (Brunies, Cassard, Mecum) - 02:56
20. Clarinet Marmalade [1st Take] (Original Dixieland ...) - 02:36
21. Clarinet Marmalade [2nd Take] (Original Dixieland ...) - 02:41
22. Mr. Jelly Lord [2nd Take] (Morton) - 03:12
23. Mr. Jelly Lord [4th Take] (Morton) - 03:07
24. London Blues (Morton) - 02:50
25. Milenberg Joys [1st Take] (Mares, Morton, Roppolo) - 02:51
26. Milenberg Joys [alternate take] (Mares, Morton, Roppolo) - 02:59
27. Mad (Heath, McHugh) - 02:37

Exact Audio Copy V0.99 prebeta 4 from 23. January 2008 

EAC extraction logfile from 12. November 2008, 11:26

New Orleans Rhythm Kings & Jelly Roll Morton / New Orleans Rhythm Kings & Jelly Roll Morton

Used drive : PIONEER DVD-RW DVR-112D Adapter: 0 ID: 0

Read mode : Secure
Utilize accurate stream : Yes
Defeat audio cache : Yes
Make use of C2 pointers : No

Read offset correction : 48
Overread into Lead-In and Lead-Out : No
Fill up missing offset samples with silence : Yes
Delete leading and trailing silent blocks : No
Null samples used in CRC calculations : Yes
Used interface : Installed external ASPI interface
Gap handling : Appended to previous track

Used output format : User Defined Encoder
Selected bitrate : 320 kBit/s
Quality : High
Add ID3 tag : Yes
Command line compressor : C:\Program Files\Exact Audio Copy\Flac\flac.exe
Additional command line options : -V -8 -T "artist=%a" -T "title=%t" -T "album=%g" -T "date=%y" -T "tracknumber=%n" -T "genre=%m" %s

TOC of the extracted CD

Track | Start | Length | Start sector | End sector
---------------------------------------------------------
1 | 0:00.00 | 2:54.10 | 0 | 13059
2 | 2:54.10 | 2:40.00 | 13060 | 25059
3 | 5:34.10 | 2:43.00 | 25060 | 37284
4 | 8:17.10 | 2:20.67 | 37285 | 47851
5 | 10:38.02 | 2:38.10 | 47852 | 59711
6 | 13:16.12 | 2:28.13 | 59712 | 70824
7 | 15:44.25 | 2:27.52 | 70825 | 81901
8 | 18:12.02 | 2:37.23 | 81902 | 93699
9 | 20:49.25 | 2:39.27 | 93700 | 105651
10 | 23:28.52 | 2:38.30 | 105652 | 117531
11 | 26:07.07 | 3:02.48 | 117532 | 131229
12 | 29:09.55 | 2:44.67 | 131230 | 143596
13 | 31:54.47 | 2:31.03 | 143597 | 154924
14 | 34:25.50 | 3:06.47 | 154925 | 168921
15 | 37:32.22 | 2:34.00 | 168922 | 180471
16 | 40:06.22 | 3:00.15 | 180472 | 193986
17 | 43:06.37 | 2:51.13 | 193987 | 206824
18 | 45:57.50 | 3:12.47 | 206825 | 221271
19 | 49:10.22 | 2:56.43 | 221272 | 234514
20 | 52:06.65 | 2:36.10 | 234515 | 246224
21 | 54:43.00 | 2:41.52 | 246225 | 258351
22 | 57:24.52 | 3:12.63 | 258352 | 272814
23 | 60:37.40 | 3:07.17 | 272815 | 286856
24 | 63:44.57 | 2:50.28 | 286857 | 299634
25 | 66:35.10 | 2:51.47 | 299635 | 312506
26 | 69:26.57 | 2:59.13 | 312507 | 325944
27 | 72:25.70 | 2:37.47 | 325945 | 337766

Track 1

Filename D:\music\rip\New Orleans Rhythm Kings & Jelly Roll Morton - New Orleans Rhythm Kings & Jelly Roll Morton (1992) {Milestone}\01 - Eccentric.wav

Pre-gap length 0:00:02.00

Peak level 91.2 %
Track quality 100.0 %
Test CRC 96960C70
Copy CRC 96960C70
Accurately ripped (confidence 2) [D1B92793]
Copy OK

Track 2

Filename D:\music\rip\New Orleans Rhythm Kings & Jelly Roll Morton - New Orleans Rhythm Kings & Jelly Roll Morton (1992) {Milestone}\02 - Farewell Blues.wav

Pre-gap length 0:00:01.66

Peak level 89.6 %
Track quality 100.0 %
Test CRC 6C115693
Copy CRC 6C115693
Accurately ripped (confidence 2) [824F0147]
Copy OK

Track 3

Filename D:\music\rip\New Orleans Rhythm Kings & Jelly Roll Morton - New Orleans Rhythm Kings & Jelly Roll Morton (1992) {Milestone}\03 - Discontented Blues.wav

Pre-gap length 0:00:02.13

Peak level 99.9 %
Track quality 100.0 %
Test CRC E0610443
Copy CRC E0610443
Accurately ripped (confidence 2) [A94628B2]
Copy OK

Track 4

Filename D:\music\rip\New Orleans Rhythm Kings & Jelly Roll Morton - New Orleans Rhythm Kings & Jelly Roll Morton (1992) {Milestone}\04 - Bugle Call Rag.wav

Pre-gap length 0:00:02.84

Peak level 100.0 %
Track quality 100.0 %
Test CRC C472F4B4
Copy CRC C472F4B4
Accurately ripped (confidence 2) [9E9C672E]
Copy OK

Track 5

Filename D:\music\rip\New Orleans Rhythm Kings & Jelly Roll Morton - New Orleans Rhythm Kings & Jelly Roll Morton (1992) {Milestone}\05 - Panama.wav

Pre-gap length 0:00:02.46

Peak level 91.9 %
Track quality 100.0 %
Test CRC 1D774617
Copy CRC 1D774617
Accurately ripped (confidence 2) [C02D95EB]
Copy OK

Track 6

Filename D:\music\rip\New Orleans Rhythm Kings & Jelly Roll Morton - New Orleans Rhythm Kings & Jelly Roll Morton (1992) {Milestone}\06 - Tiger Rag.wav

Pre-gap length 0:00:02.42

Peak level 85.8 %
Track quality 100.0 %
Test CRC 6D8AB4AE
Copy CRC 6D8AB4AE
Accurately ripped (confidence 2) [C47D01C0]
Copy OK

Track 7

Filename D:\music\rip\New Orleans Rhythm Kings & Jelly Roll Morton - New Orleans Rhythm Kings & Jelly Roll Morton (1992) {Milestone}\07 - Livery Stable Blues.wav

Pre-gap length 0:00:02.57

Peak level 79.4 %
Track quality 100.0 %
Test CRC 08ABE422
Copy CRC 08ABE422
Accurately ripped (confidence 2) [0DC14F56]
Copy OK

Track 8

Filename D:\music\rip\New Orleans Rhythm Kings & Jelly Roll Morton - New Orleans Rhythm Kings & Jelly Roll Morton (1992) {Milestone}\08 - Oriental.wav

Pre-gap length 0:00:01.20

Peak level 97.6 %
Track quality 100.0 %
Test CRC CD2BFF1E
Copy CRC CD2BFF1E
Accurately ripped (confidence 2) [02AD246E]
Copy OK

Track 9

Filename D:\music\rip\New Orleans Rhythm Kings & Jelly Roll Morton - New Orleans Rhythm Kings & Jelly Roll Morton (1992) {Milestone}\09 - Sweet Lovin' Man (1st take).wav

Pre-gap length 0:00:02.20

Peak level 83.9 %
Track quality 100.0 %
Test CRC 89462D6E
Copy CRC 89462D6E
Accurately ripped (confidence 2) [E6E5A22A]
Copy OK

Track 10

Filename D:\music\rip\New Orleans Rhythm Kings & Jelly Roll Morton - New Orleans Rhythm Kings & Jelly Roll Morton (1992) {Milestone}\10 - That's A Plenty (2nd take).wav

Pre-gap length 0:00:02.56

Peak level 86.7 %
Track quality 99.9 %
Test CRC 7B8620CE
Copy CRC 7B8620CE
Accurately ripped (confidence 2) [FA23C06C]
Copy OK

Track 11

Filename D:\music\rip\New Orleans Rhythm Kings & Jelly Roll Morton - New Orleans Rhythm Kings & Jelly Roll Morton (1992) {Milestone}\11 - Shimmeshawabble.wav

Pre-gap length 0:00:03.13

Peak level 90.0 %
Track quality 99.9 %
Test CRC 451C41CB
Copy CRC 451C41CB
Accurately ripped (confidence 2) [9184AF06]
Copy OK

Track 12

Filename D:\music\rip\New Orleans Rhythm Kings & Jelly Roll Morton - New Orleans Rhythm Kings & Jelly Roll Morton (1992) {Milestone}\12 - Weary Blues.wav

Pre-gap length 0:00:02.66

Peak level 90.1 %
Track quality 100.0 %
Test CRC CD6BA601
Copy CRC CD6BA601
Accurately ripped (confidence 2) [57F457CD]
Copy OK

Track 13

Filename D:\music\rip\New Orleans Rhythm Kings & Jelly Roll Morton - New Orleans Rhythm Kings & Jelly Roll Morton (1992) {Milestone}\13 - That Da Da Strain.wav

Pre-gap length 0:00:02.20

Peak level 94.5 %
Track quality 100.0 %
Test CRC A49739EB
Copy CRC A49739EB
Accurately ripped (confidence 2) [3F5BEF51]
Copy OK

Track 14

Filename D:\music\rip\New Orleans Rhythm Kings & Jelly Roll Morton - New Orleans Rhythm Kings & Jelly Roll Morton (1992) {Milestone}\14 - Wolverine Blues (3rd take).wav

Pre-gap length 0:00:02.80

Peak level 78.4 %
Track quality 99.9 %
Test CRC 82D8ED0C
Copy CRC 82D8ED0C
Accurately ripped (confidence 2) [BC790839]
Copy OK

Track 15

Filename D:\music\rip\New Orleans Rhythm Kings & Jelly Roll Morton - New Orleans Rhythm Kings & Jelly Roll Morton (1992) {Milestone}\15 - Maple Leaf Rag.wav

Pre-gap length 0:00:03.16

Peak level 85.0 %
Track quality 100.0 %
Test CRC 296F69C7
Copy CRC 296F69C7
Accurately ripped (confidence 2) [CABB4BE7]
Copy OK

Track 16

Filename D:\music\rip\New Orleans Rhythm Kings & Jelly Roll Morton - New Orleans Rhythm Kings & Jelly Roll Morton (1992) {Milestone}\16 - Tin Roof Blues (3rd take).wav

Pre-gap length 0:00:02.29

Peak level 66.2 %
Track quality 100.0 %
Test CRC 5E267014
Copy CRC 5E267014
Accurately ripped (confidence 2) [998A37CC]
Copy OK

Track 17

Filename D:\music\rip\New Orleans Rhythm Kings & Jelly Roll Morton - New Orleans Rhythm Kings & Jelly Roll Morton (1992) {Milestone}\17 - Sobbin' Blues.wav

Pre-gap length 0:00:02.49

Peak level 86.7 %
Track quality 100.0 %
Test CRC D552DA15
Copy CRC D552DA15
Accurately ripped (confidence 2) [255DB163]
Copy OK

Track 18

Filename D:\music\rip\New Orleans Rhythm Kings & Jelly Roll Morton - New Orleans Rhythm Kings & Jelly Roll Morton (1992) {Milestone}\18 - Marguerite.wav

Pre-gap length 0:00:02.46

Peak level 98.2 %
Track quality 100.0 %
Test CRC DE983394
Copy CRC DE983394
Accurately ripped (confidence 2) [9AB4F654]
Copy OK

Track 19

Filename D:\music\rip\New Orleans Rhythm Kings & Jelly Roll Morton - New Orleans Rhythm Kings & Jelly Roll Morton (1992) {Milestone}\19 - Angry.wav

Pre-gap length 0:00:02.53

Peak level 91.2 %
Track quality 100.0 %
Test CRC 6C1C5333
Copy CRC 6C1C5333
Accurately ripped (confidence 2) [761F88EA]
Copy OK

Track 20

Filename D:\music\rip\New Orleans Rhythm Kings & Jelly Roll Morton - New Orleans Rhythm Kings & Jelly Roll Morton (1992) {Milestone}\20 - Clarinet Marmalade (1st take).wav

Pre-gap length 0:00:02.13

Peak level 100.0 %
Track quality 100.0 %
Test CRC 0888A596
Copy CRC 0888A596
Accurately ripped (confidence 2) [C4585DD5]
Copy OK

Track 21

Filename D:\music\rip\New Orleans Rhythm Kings & Jelly Roll Morton - New Orleans Rhythm Kings & Jelly Roll Morton (1992) {Milestone}\21 - Clarinet Marmalade (2nd take).wav

Pre-gap length 0:00:02.46

Peak level 86.6 %
Track quality 99.9 %
Test CRC 1DFB9E49
Copy CRC 1DFB9E49
Accurately ripped (confidence 2) [7CD739AC]
Copy OK

Track 22

Filename D:\music\rip\New Orleans Rhythm Kings & Jelly Roll Morton - New Orleans Rhythm Kings & Jelly Roll Morton (1992) {Milestone}\22 - Mr. Jelly Lord (2nd take).wav

Pre-gap length 0:00:01.93

Peak level 78.4 %
Track quality 100.0 %
Test CRC 1B199EE7
Copy CRC 1B199EE7
Accurately ripped (confidence 2) [A24A6F8F]
Copy OK

Track 23

Filename D:\music\rip\New Orleans Rhythm Kings & Jelly Roll Morton - New Orleans Rhythm Kings & Jelly Roll Morton (1992) {Milestone}\23 - Mr Jelly Lord (4th take).wav

Pre-gap length 0:00:02.13

Peak level 91.1 %
Track quality 100.0 %
Test CRC 7625889B
Copy CRC 7625889B
Accurately ripped (confidence 2) [4A5EA664]
Copy OK

Track 24

Filename D:\music\rip\New Orleans Rhythm Kings & Jelly Roll Morton - New Orleans Rhythm Kings & Jelly Roll Morton (1992) {Milestone}\24 - London Blues.wav

Pre-gap length 0:00:02.53

Peak level 97.5 %
Track quality 100.0 %
Test CRC CCBE9920
Copy CRC CCBE9920
Accurately ripped (confidence 2) [81AB8F11]
Copy OK

Track 25

Filename D:\music\rip\New Orleans Rhythm Kings & Jelly Roll Morton - New Orleans Rhythm Kings & Jelly Roll Morton (1992) {Milestone}\25 - Milenberg Joys (1st take).wav

Pre-gap length 0:00:02.77

Peak level 76.3 %
Track quality 100.0 %
Test CRC C5BC0F28
Copy CRC C5BC0F28
Accurately ripped (confidence 2) [54F26CA3]
Copy OK

Track 26

Filename D:\music\rip\New Orleans Rhythm Kings & Jelly Roll Morton - New Orleans Rhythm Kings & Jelly Roll Morton (1992) {Milestone}\26 - Milenberg Blues (4th take).wav

Pre-gap length 0:00:01.09

Peak level 70.5 %
Track quality 100.0 %
Test CRC ADB33D60
Copy CRC ADB33D60
Accurately ripped (confidence 2) [38F0FDB6]
Copy OK

Track 27

Filename D:\music\rip\New Orleans Rhythm Kings & Jelly Roll Morton - New Orleans Rhythm Kings & Jelly Roll Morton (1992) {Milestone}\27 - MAD.wav

Pre-gap length 0:00:02.40

Peak level 83.7 %
Track quality 100.0 %
Test CRC ED4F0FCF
Copy CRC ED4F0FCF
Accurately ripped (confidence 2) [686B69DD]
Copy OK

All tracks accurately ripped

No errors occurred

End of status report
REM DATE 1992 
REM DISCID BD11971B
REM COMMENT "ExactAudioCopy v0.99pb4"
PERFORMER "New Orleans Rhythm Kings & Jelly Roll Morton"
TITLE "New Orleans Rhythm Kings & Jelly Roll Morton"
FILE "01 - Eccentric.wav" WAVE
TRACK 01 AUDIO
TITLE "Eccentric"
PERFORMER "New Orleans Rhythm Kings & Jelly Roll Morton"
INDEX 01 00:00:00
TRACK 02 AUDIO
TITLE "Farewell Blues"
PERFORMER "New Orleans Rhythm Kings & Jelly Roll Morton"
INDEX 00 02:52:35
FILE "02 - Farewell Blues.wav" WAVE
INDEX 01 00:00:00
TRACK 03 AUDIO
TITLE "Discontented Blues"
PERFORMER "New Orleans Rhythm Kings & Jelly Roll Morton"
INDEX 00 02:37:65
FILE "03 - Discontented Blues.wav" WAVE
INDEX 01 00:00:00
TRACK 04 AUDIO
TITLE "Bugle Call Rag"
PERFORMER "New Orleans Rhythm Kings & Jelly Roll Morton"
INDEX 00 02:40:12
FILE "04 - Bugle Call Rag.wav" WAVE
INDEX 01 00:00:00
TRACK 05 AUDIO
TITLE "Panama"
PERFORMER "New Orleans Rhythm Kings & Jelly Roll Morton"
INDEX 00 02:18:32
FILE "05 - Panama.wav" WAVE
INDEX 01 00:00:00
TRACK 06 AUDIO
TITLE "Tiger Rag"
PERFORMER "New Orleans Rhythm Kings & Jelly Roll Morton"
INDEX 00 02:35:53
FILE "06 - Tiger Rag.wav" WAVE
INDEX 01 00:00:00
TRACK 07 AUDIO
TITLE "Livery Stable Blues"
PERFORMER "New Orleans Rhythm Kings & Jelly Roll Morton"
INDEX 00 02:25:45
FILE "07 - Livery Stable Blues.wav" WAVE
INDEX 01 00:00:00
TRACK 08 AUDIO
TITLE "Oriental"
PERFORMER "New Orleans Rhythm Kings & Jelly Roll Morton"
INDEX 00 02:26:37
FILE "08 - Oriental.wav" WAVE
INDEX 01 00:00:00
TRACK 09 AUDIO
TITLE "Sweet Lovin' Man (1st take)"
PERFORMER "New Orleans Rhythm Kings & Jelly Roll Morton"
INDEX 00 02:35:08
FILE "09 - Sweet Lovin' Man (1st take).wav" WAVE
INDEX 01 00:00:00
TRACK 10 AUDIO
TITLE "That's A Plenty (2nd take)"
PERFORMER "New Orleans Rhythm Kings & Jelly Roll Morton"
INDEX 00 02:36:60
FILE "10 - That's A Plenty (2nd take).wav" WAVE
INDEX 01 00:00:00
TRACK 11 AUDIO
TITLE "Shimmeshawabble"
PERFORMER "New Orleans Rhythm Kings & Jelly Roll Morton"
INDEX 00 02:35:20
FILE "11 - Shimmeshawabble.wav" WAVE
INDEX 01 00:00:00
TRACK 12 AUDIO
TITLE "Weary Blues"
PERFORMER "New Orleans Rhythm Kings & Jelly Roll Morton"
INDEX 00 02:59:73
FILE "12 - Weary Blues.wav" WAVE
INDEX 01 00:00:00
TRACK 13 AUDIO
TITLE "That Da Da Strain"
PERFORMER "New Orleans Rhythm Kings & Jelly Roll Morton"
INDEX 00 02:42:52
FILE "13 - That Da Da Strain.wav" WAVE
INDEX 01 00:00:00
TRACK 14 AUDIO
TITLE "Wolverine Blues (3rd take)"
PERFORMER "New Orleans Rhythm Kings & Jelly Roll Morton"
INDEX 00 02:28:18
FILE "14 - Wolverine Blues (3rd take).wav" WAVE
INDEX 01 00:00:00
TRACK 15 AUDIO
TITLE "Maple Leaf Rag"
PERFORMER "New Orleans Rhythm Kings & Jelly Roll Morton"
INDEX 00 03:03:35
FILE "15 - Maple Leaf Rag.wav" WAVE
INDEX 01 00:00:00
TRACK 16 AUDIO
TITLE "Tin Roof Blues (3rd take)"
PERFORMER "New Orleans Rhythm Kings & Jelly Roll Morton"
INDEX 00 02:31:53
FILE "16 - Tin Roof Blues (3rd take).wav" WAVE
INDEX 01 00:00:00
TRACK 17 AUDIO
TITLE "Sobbin' Blues"
PERFORMER "New Orleans Rhythm Kings & Jelly Roll Morton"
INDEX 00 02:57:53
FILE "17 - Sobbin' Blues.wav" WAVE
INDEX 01 00:00:00
TRACK 18 AUDIO
TITLE "Marguerite"
PERFORMER "New Orleans Rhythm Kings & Jelly Roll Morton"
INDEX 00 02:48:53
FILE "18 - Marguerite.wav" WAVE
INDEX 01 00:00:00
TRACK 19 AUDIO
TITLE "Angry"
PERFORMER "New Orleans Rhythm Kings & Jelly Roll Morton"
INDEX 00 03:10:07
FILE "19 - Angry.wav" WAVE
INDEX 01 00:00:00
TRACK 20 AUDIO
TITLE "Clarinet Marmalade (1st take)"
PERFORMER "New Orleans Rhythm Kings & Jelly Roll Morton"
INDEX 00 02:54:33
FILE "20 - Clarinet Marmalade (1st take).wav" WAVE
INDEX 01 00:00:00
TRACK 21 AUDIO
TITLE "Clarinet Marmalade (2nd take)"
PERFORMER "New Orleans Rhythm Kings & Jelly Roll Morton"
INDEX 00 02:33:50
FILE "21 - Clarinet Marmalade (2nd take).wav" WAVE
INDEX 01 00:00:00
TRACK 22 AUDIO
TITLE "Mr. Jelly Lord (2nd take)"
PERFORMER "New Orleans Rhythm Kings & Jelly Roll Morton"
INDEX 00 02:39:57
FILE "22 - Mr. Jelly Lord (2nd take).wav" WAVE
INDEX 01 00:00:00
TRACK 23 AUDIO
TITLE "Mr Jelly Lord (4th take)"
PERFORMER "New Orleans Rhythm Kings & Jelly Roll Morton"
INDEX 00 03:10:53
FILE "23 - Mr Jelly Lord (4th take).wav" WAVE
INDEX 01 00:00:00
TRACK 24 AUDIO
TITLE "London Blues"
PERFORMER "New Orleans Rhythm Kings & Jelly Roll Morton"
INDEX 00 03:04:52
FILE "24 - London Blues.wav" WAVE
INDEX 01 00:00:00
TRACK 25 AUDIO
TITLE "Milenberg Joys (1st take)"
PERFORMER "New Orleans Rhythm Kings & Jelly Roll Morton"
INDEX 00 02:47:45
FILE "25 - Milenberg Joys (1st take).wav" WAVE
INDEX 01 00:00:00
TRACK 26 AUDIO
TITLE "Milenberg Blues (4th take)"
PERFORMER "New Orleans Rhythm Kings & Jelly Roll Morton"
INDEX 00 02:50:40
FILE "26 - Milenberg Blues (4th take).wav" WAVE
INDEX 01 00:00:00
TRACK 27 AUDIO
TITLE "MAD"
PERFORMER "New Orleans Rhythm Kings & Jelly Roll Morton"
INDEX 00 02:56:58
FILE "27 - MAD.wav" WAVE
INDEX 01 00:00:00

Этот торрент недоступен для скачивания без регистрации, однако доступен по публичной magnet-ссылке (источники с публичных трекеров). Перед использованием ссылки прочтите, пожалуйста Пользовательское соглашение, а также как можно дольше оставайтесь на раздаче! Для того, чтобы скачать сам торрент-файл (который видит больше источников), а также для того, чтобы поблагодарить релизера, вам необходимо зарегистрироваться. Если регистрироваться лень - вы можете также попробовать скачать релиз по нашим партнерским ссылкам ниже. Кроме того, зарегистрированным пользователям не показывается всплывающая реклама при скачивании.

[underver.se].t223708.torrent
Трекер: Зарегистрирован   [ 06.10.2021 14:23 ]  
Статус: проверено (by Бишеп at 06.10.2021 14:23)
Поблагодарили: пока никто не поблагодарил...
Тип торрента: публичный - доступные источники с открытых трекеров: 
Размер: 201 MB (занимает 0.04 DVDR, для записи нужно 1 болванка DVDR/RW)
 
 

Яндекс.Метрика powered by Sphinx


В Н И М А Н И Е
Сайт не распространяет и не хранит электронные версии произведений, а лишь бесплатно и без коммерческой выгоды (не требуя взамен платы,
SMS и т.д.) предоставляет доступ к создаваемому пользователями каталогу ссылок на торрент-файлы, которые содержат только списки хеш-сумм.
Убедительная просьба с жалобами обращаться напрямую к пользователю, разместившему торрент файл.

Вверх