Loading...
Error

(Cool, Mainstream Jazz) Terry Gibbs Quartet - Plays Terry Gibbs Featuring Alice McLeod (2012) [FLAC (Tracks+.Cue), Lossless]

Статистика раздачи
Размер:  456 MB   |    Зарегистрирован:  11 месяцев   |    Скачан:  1 раз
Сидов:  1  |  0 KB/s  ]   Личеров:  1  |  0 KB/s  ]

* - сиды/пиры с внешних источников

   
 
Автор Сообщение

Бишеп Пол:Муж

06-Окт-2021 15:40

Terry Gibbs Quartet - Plays Terry Gibbs Featuring Alice McLeod

Жанр: Cool, Mainstream Jazz
Год выпуска: 2012
Носитель: CD
Производитель диска: Fresh Sound Records - FSRCD1102
Аудиокодек: FLAC
Тип рипа: Tracks+.CUE
Битрейт аудио: lossless
Продолжительность: 01:17:32


01. Burton Up Your Lip (02:25)
02. Up at Logue's Place (03:12)
03. One for My Uncle (02:44)
04. Ballad for Barbara (03:47)
05. Sherry Bossa Nova (04:05)
06. El Cheapo (02:53)
07. Henny Time (02:22)
08. Manny Moons Ago (02:49)
09. Better to Be Richie Than Poor (02:32)
10. Sunny Girl (02:45)
11. Sol Right with Me (02:50)
12. Half Stuie (02:56)
13. Little 'S' (03:49)
14. El Nutto (06:24)
15. The Nightie Night Waltz (02:45)
16. The Young Ones (04:04)
17. El Flippo (04:23)
18. Hey Pretty (03:33)
19. Sleepy Head Blues (05:59)
20. Lonely Days (02:45)
21. Little 'C' (03:18)
22. Just for Laughs (05:11)

Exact Audio Copy V1.3 from 2. September 2016 

EAC extraction logfile from 20. June 2021, 11:01

Terry Gibbs Quartet / Terry Gibbs Quartet Plays Terry Gibbs

Used drive : HL-DT-STBDDVDRW UH12LS28 Adapter: 1 ID: 0

Read mode : Secure
Utilize accurate stream : Yes
Defeat audio cache : Yes
Make use of C2 pointers : No

Read offset correction : 667
Overread into Lead-In and Lead-Out : No
Fill up missing offset samples with silence : Yes
Delete leading and trailing silent blocks : No
Null samples used in CRC calculations : Yes
Used interface : Native Win32 interface for Win NT & 2000
Gap handling : Appended to previous track

Used output format : User Defined Encoder
Selected bitrate : 1024 kBit/s
Quality : High
Add ID3 tag : No
Command line compressor : K:\Program Files (x86)\Exact Audio Copy\Flac\flac.exe
Additional command line options : -8 -V -T "ARTIST=%artist%" -T "TITLE=%title%" -T "ALBUM=%albumtitle%" -T "DATE=%year%" -T "TRACKNUMBER=%tracknr%" -T "GENRE=%genre%" -T "PERFORMER=%albuminterpret%" -T "COMPOSER=%composer%" %haslyrics%--tag-from-file=LYRICS="%lyricsfile%"%haslyrics% -T "ALBUMARTIST=%albumartist%" -T "DISCNUMBER=%cdnumber%" -T "TOTALDISCS=%totalcds%" -T "TOTALTRACKS=%numtracks%" -T "COMMENT=%comment%" %source% -o %dest%

TOC of the extracted CD

Track | Start | Length | Start sector | End sector
---------------------------------------------------------
1 | 0:00.00 | 2:25.06 | 0 | 10880
2 | 2:25.06 | 3:11.48 | 10881 | 25253
3 | 5:36.54 | 2:44.21 | 25254 | 37574
4 | 8:21.00 | 3:47.08 | 37575 | 54607
5 | 12:08.08 | 4:05.33 | 54608 | 73015
6 | 16:13.41 | 2:52.48 | 73016 | 85963
7 | 19:06.14 | 2:22.34 | 85964 | 96647
8 | 21:28.48 | 2:48.62 | 96648 | 109309
9 | 24:17.35 | 2:31.72 | 109310 | 120706
10 | 26:49.32 | 2:45.04 | 120707 | 133085
11 | 29:34.36 | 2:50.00 | 133086 | 145835
12 | 32:24.36 | 2:55.54 | 145836 | 159014
13 | 35:20.15 | 3:49.24 | 159015 | 176213
14 | 39:09.39 | 6:23.41 | 176214 | 204979
15 | 45:33.05 | 2:44.57 | 204980 | 217336
16 | 48:17.62 | 4:03.70 | 217337 | 235631
17 | 52:21.57 | 4:22.62 | 235632 | 255343
18 | 56:44.44 | 3:33.22 | 255344 | 271340
19 | 60:17.66 | 5:59.03 | 271341 | 298268
20 | 66:16.69 | 2:45.07 | 298269 | 310650
21 | 69:02.01 | 3:18.12 | 310651 | 325512
22 | 72:20.13 | 5:11.27 | 325513 | 348864

Track 1

Filename E:\EAC music folders\Terry Gibbs Quartet - Terry Gibbs Quartet Plays Terry Gibbs (2021) [FLAC] {FSR-CD 1102}\01 Burton Up Your Lip.wav

Pre-gap length 0:00:02.00

Peak level 68.6 %
Extraction speed 0.9 X
Track quality 99.9 %
Test CRC 7C98F8AE
Copy CRC 7C98F8AE
Track not present in AccurateRip database
Copy OK

Track 2

Filename E:\EAC music folders\Terry Gibbs Quartet - Terry Gibbs Quartet Plays Terry Gibbs (2021) [FLAC] {FSR-CD 1102}\02 Up at Logue’s Place.wav

Pre-gap length 0:00:03.00

Peak level 59.6 %
Extraction speed 1.2 X
Track quality 100.0 %
Test CRC 03A95E0E
Copy CRC 03A95E0E
Track not present in AccurateRip database
Copy OK

Track 3

Filename E:\EAC music folders\Terry Gibbs Quartet - Terry Gibbs Quartet Plays Terry Gibbs (2021) [FLAC] {FSR-CD 1102}\03 One for My Uncle.wav

Pre-gap length 0:00:03.00

Peak level 70.6 %
Extraction speed 1.3 X
Track quality 100.0 %
Test CRC 8F85FBD1
Copy CRC 8F85FBD1
Track not present in AccurateRip database
Copy OK

Track 4

Filename E:\EAC music folders\Terry Gibbs Quartet - Terry Gibbs Quartet Plays Terry Gibbs (2021) [FLAC] {FSR-CD 1102}\04 Ballad for Barbara.wav

Pre-gap length 0:00:03.00

Peak level 61.8 %
Extraction speed 1.3 X
Track quality 100.0 %
Test CRC EA2F4E99
Copy CRC EA2F4E99
Track not present in AccurateRip database
Copy OK

Track 5

Filename E:\EAC music folders\Terry Gibbs Quartet - Terry Gibbs Quartet Plays Terry Gibbs (2021) [FLAC] {FSR-CD 1102}\05 Sherry Bossa Nova.wav

Pre-gap length 0:00:03.00

Peak level 66.0 %
Extraction speed 1.6 X
Track quality 100.0 %
Test CRC 2B3CE6A5
Copy CRC 2B3CE6A5
Track not present in AccurateRip database
Copy OK

Track 6

Filename E:\EAC music folders\Terry Gibbs Quartet - Terry Gibbs Quartet Plays Terry Gibbs (2021) [FLAC] {FSR-CD 1102}\06 El Cheapo.wav

Pre-gap length 0:00:03.00

Peak level 60.7 %
Extraction speed 1.3 X
Track quality 99.9 %
Test CRC 1F38656C
Copy CRC 1F38656C
Track not present in AccurateRip database
Copy OK

Track 7

Filename E:\EAC music folders\Terry Gibbs Quartet - Terry Gibbs Quartet Plays Terry Gibbs (2021) [FLAC] {FSR-CD 1102}\07 Henny Time.wav

Pre-gap length 0:00:03.00

Peak level 67.9 %
Extraction speed 1.5 X
Track quality 100.0 %
Test CRC E511CC15
Copy CRC E511CC15
Track not present in AccurateRip database
Copy OK

Track 8

Filename E:\EAC music folders\Terry Gibbs Quartet - Terry Gibbs Quartet Plays Terry Gibbs (2021) [FLAC] {FSR-CD 1102}\08 Manny Moons Ago.wav

Pre-gap length 0:00:03.00

Peak level 68.7 %
Extraction speed 1.6 X
Track quality 100.0 %
Test CRC BBB3E975
Copy CRC BBB3E975
Track not present in AccurateRip database
Copy OK

Track 9

Filename E:\EAC music folders\Terry Gibbs Quartet - Terry Gibbs Quartet Plays Terry Gibbs (2021) [FLAC] {FSR-CD 1102}\09 Better to Be Richie Than Poor.wav

Pre-gap length 0:00:03.00

Peak level 72.7 %
Extraction speed 1.7 X
Track quality 100.0 %
Test CRC 89A4A47A
Copy CRC 89A4A47A
Track not present in AccurateRip database
Copy OK

Track 10

Filename E:\EAC music folders\Terry Gibbs Quartet - Terry Gibbs Quartet Plays Terry Gibbs (2021) [FLAC] {FSR-CD 1102}\10 Sunny Girl.wav

Pre-gap length 0:00:03.00

Peak level 72.6 %
Extraction speed 1.8 X
Track quality 100.0 %
Test CRC 31C112DD
Copy CRC 31C112DD
Track not present in AccurateRip database
Copy OK

Track 11

Filename E:\EAC music folders\Terry Gibbs Quartet - Terry Gibbs Quartet Plays Terry Gibbs (2021) [FLAC] {FSR-CD 1102}\11 Sol Right with Me.wav

Pre-gap length 0:00:03.00

Peak level 71.1 %
Extraction speed 1.5 X
Track quality 99.9 %
Test CRC 4D2334CA
Copy CRC 4D2334CA
Track not present in AccurateRip database
Copy OK

Track 12

Filename E:\EAC music folders\Terry Gibbs Quartet - Terry Gibbs Quartet Plays Terry Gibbs (2021) [FLAC] {FSR-CD 1102}\12 Half Stuie.wav

Pre-gap length 0:00:03.00

Peak level 68.2 %
Extraction speed 1.9 X
Track quality 100.0 %
Test CRC C9852C70
Copy CRC C9852C70
Track not present in AccurateRip database
Copy OK

Track 13

Filename E:\EAC music folders\Terry Gibbs Quartet - Terry Gibbs Quartet Plays Terry Gibbs (2021) [FLAC] {FSR-CD 1102}\13 Little “S”.wav

Pre-gap length 0:00:03.00

Peak level 82.0 %
Extraction speed 2.0 X
Track quality 100.0 %
Test CRC F4B5DA9F
Copy CRC F4B5DA9F
Track not present in AccurateRip database
Copy OK

Track 14

Filename E:\EAC music folders\Terry Gibbs Quartet - Terry Gibbs Quartet Plays Terry Gibbs (2021) [FLAC] {FSR-CD 1102}\14 El Nutto.wav

Pre-gap length 0:00:03.00

Peak level 82.8 %
Extraction speed 2.2 X
Track quality 100.0 %
Test CRC B2CDB287
Copy CRC B2CDB287
Track not present in AccurateRip database
Copy OK

Track 15

Filename E:\EAC music folders\Terry Gibbs Quartet - Terry Gibbs Quartet Plays Terry Gibbs (2021) [FLAC] {FSR-CD 1102}\15 The Nightie Night Waltz.wav

Pre-gap length 0:00:03.00

Peak level 91.1 %
Extraction speed 2.1 X
Track quality 100.0 %
Test CRC 07163C17
Copy CRC 07163C17
Track not present in AccurateRip database
Copy OK

Track 16

Filename E:\EAC music folders\Terry Gibbs Quartet - Terry Gibbs Quartet Plays Terry Gibbs (2021) [FLAC] {FSR-CD 1102}\16 The Young Ones.wav

Pre-gap length 0:00:03.00

Peak level 78.1 %
Extraction speed 2.3 X
Track quality 100.0 %
Test CRC 70B7F4B6
Copy CRC 70B7F4B6
Track not present in AccurateRip database
Copy OK

Track 17

Filename E:\EAC music folders\Terry Gibbs Quartet - Terry Gibbs Quartet Plays Terry Gibbs (2021) [FLAC] {FSR-CD 1102}\17 El Flippo.wav

Pre-gap length 0:00:03.00

Peak level 85.1 %
Extraction speed 2.4 X
Track quality 100.0 %
Test CRC D848C105
Copy CRC D848C105
Track not present in AccurateRip database
Copy OK

Track 18

Filename E:\EAC music folders\Terry Gibbs Quartet - Terry Gibbs Quartet Plays Terry Gibbs (2021) [FLAC] {FSR-CD 1102}\18 Hey Pretty.wav

Pre-gap length 0:00:03.00

Peak level 88.1 %
Extraction speed 2.3 X
Track quality 100.0 %
Test CRC 0CFEF1E6
Copy CRC 0CFEF1E6
Track not present in AccurateRip database
Copy OK

Track 19

Filename E:\EAC music folders\Terry Gibbs Quartet - Terry Gibbs Quartet Plays Terry Gibbs (2021) [FLAC] {FSR-CD 1102}\19 Sleepy Head Blues.wav

Pre-gap length 0:00:03.00

Peak level 92.8 %
Extraction speed 2.6 X
Track quality 100.0 %
Test CRC 57776FCB
Copy CRC 57776FCB
Track not present in AccurateRip database
Copy OK

Track 20

Filename E:\EAC music folders\Terry Gibbs Quartet - Terry Gibbs Quartet Plays Terry Gibbs (2021) [FLAC] {FSR-CD 1102}\20 Lonely Days.wav

Pre-gap length 0:00:03.00

Peak level 72.2 %
Extraction speed 2.4 X
Track quality 100.0 %
Test CRC 1B00A0B4
Copy CRC 1B00A0B4
Track not present in AccurateRip database
Copy OK

Track 21

Filename E:\EAC music folders\Terry Gibbs Quartet - Terry Gibbs Quartet Plays Terry Gibbs (2021) [FLAC] {FSR-CD 1102}\21 Little “C”.wav

Pre-gap length 0:00:03.00

Peak level 100.0 %
Extraction speed 2.5 X
Track quality 100.0 %
Test CRC 8886EC1C
Copy CRC 8886EC1C
Track not present in AccurateRip database
Copy OK

Track 22

Filename E:\EAC music folders\Terry Gibbs Quartet - Terry Gibbs Quartet Plays Terry Gibbs (2021) [FLAC] {FSR-CD 1102}\22 Just for Laughs.wav

Pre-gap length 0:00:03.00

Peak level 80.2 %
Extraction speed 2.7 X
Track quality 100.0 %
Test CRC C3242B22
Copy CRC C3242B22
Track not present in AccurateRip database
Copy OK

None of the tracks are present in the AccurateRip database

No errors occurred

End of status report

---- CUETools DB Plugin V2.1.6

[CTDB TOCID: sxRvM68n0hHedLti3vLVdX.Suw0-] disk not present in database
Submit result: sxRvM68n0hHedLti3vLVdX.Suw0- has been uploaded

==== Log checksum 591ECD9A23F924C94B9B4570FB999895E0259F62D25CBD398618498F47267C00 ====
REM GENRE Jazz 
REM DATE 2021
REM DISCID 42122B16
REM COMMENT "ExactAudioCopy v1.3"
PERFORMER "Terry Gibbs Quartet"
TITLE "Plays Terry Gibbs feat. Alice McLeod"
FILE "01 - Burton Up Your Lip.wav" WAVE
TRACK 01 AUDIO
TITLE "Burton Up Your Lip"
PERFORMER "Terry Gibbs Quartet"
INDEX 01 00:00:00
TRACK 02 AUDIO
TITLE "Up at Logue's Place"
PERFORMER "Terry Gibbs Quartet"
INDEX 00 02:22:06
FILE "02 - Up at Logue's Place.wav" WAVE
INDEX 01 00:00:00
TRACK 03 AUDIO
TITLE "One for My Uncle"
PERFORMER "Terry Gibbs Quartet"
INDEX 00 03:08:48
FILE "03 - One for My Uncle.wav" WAVE
INDEX 01 00:00:00
TRACK 04 AUDIO
TITLE "Ballad for Barbara"
PERFORMER "Terry Gibbs Quartet"
INDEX 00 02:41:21
FILE "04 - Ballad for Barbara.wav" WAVE
INDEX 01 00:00:00
TRACK 05 AUDIO
TITLE "Sherry Bossa Nova"
PERFORMER "Terry Gibbs Quartet"
INDEX 00 03:44:08
FILE "05 - Sherry Bossa Nova.wav" WAVE
INDEX 01 00:00:00
TRACK 06 AUDIO
TITLE "El Cheapo"
PERFORMER "Terry Gibbs Quartet"
INDEX 00 04:02:33
FILE "06 - El Cheapo.wav" WAVE
INDEX 01 00:00:00
TRACK 07 AUDIO
TITLE "Henny Time"
PERFORMER "Terry Gibbs Quartet"
INDEX 00 02:49:48
FILE "07 - Henny Time.wav" WAVE
INDEX 01 00:00:00
TRACK 08 AUDIO
TITLE "Manny Moons Ago"
PERFORMER "Terry Gibbs Quartet"
INDEX 00 02:19:34
FILE "08 - Manny Moons Ago.wav" WAVE
INDEX 01 00:00:00
TRACK 09 AUDIO
TITLE "Better to Be Richie Than Poor"
PERFORMER "Terry Gibbs Quartet"
INDEX 00 02:45:62
FILE "09 - Better to Be Richie Than Poor.wav" WAVE
INDEX 01 00:00:00
TRACK 10 AUDIO
TITLE "Sunny Girl"
PERFORMER "Terry Gibbs Quartet"
INDEX 00 02:28:72
FILE "10 - Sunny Girl.wav" WAVE
INDEX 01 00:00:00
TRACK 11 AUDIO
TITLE "Sol Right with Me"
PERFORMER "Terry Gibbs Quartet"
INDEX 00 02:42:04
FILE "11 - Sol Right with Me.wav" WAVE
INDEX 01 00:00:00
TRACK 12 AUDIO
TITLE "Half Stuie"
PERFORMER "Terry Gibbs Quartet"
INDEX 00 02:47:00
FILE "12 - Half Stuie.wav" WAVE
INDEX 01 00:00:00
TRACK 13 AUDIO
TITLE "Little 'S'"
PERFORMER "Terry Gibbs Quartet"
INDEX 00 02:52:54
FILE "13 - Little 'S'.wav" WAVE
INDEX 01 00:00:00
TRACK 14 AUDIO
TITLE "El Nutto"
PERFORMER "Terry Gibbs Quartet"
INDEX 00 03:46:24
FILE "14 - El Nutto.wav" WAVE
INDEX 01 00:00:00
TRACK 15 AUDIO
TITLE "The Nightie Night Waltz"
PERFORMER "Terry Gibbs Quartet"
INDEX 00 06:20:41
FILE "15 - The Nightie Night Waltz.wav" WAVE
INDEX 01 00:00:00
TRACK 16 AUDIO
TITLE "The Young Ones"
PERFORMER "Terry Gibbs Quartet"
INDEX 00 02:41:57
FILE "16 - The Young Ones.wav" WAVE
INDEX 01 00:00:00
TRACK 17 AUDIO
TITLE "El Flippo"
PERFORMER "Terry Gibbs Quartet"
INDEX 00 04:00:70
FILE "17 - El Flippo.wav" WAVE
INDEX 01 00:00:00
TRACK 18 AUDIO
TITLE "Hey Pretty"
PERFORMER "Terry Gibbs Quartet"
INDEX 00 04:19:62
FILE "18 - Hey Pretty.wav" WAVE
INDEX 01 00:00:00
TRACK 19 AUDIO
TITLE "Sleepy Head Blues"
PERFORMER "Terry Gibbs Quartet"
INDEX 00 03:30:22
FILE "19 - Sleepy Head Blues.wav" WAVE
INDEX 01 00:00:00
TRACK 20 AUDIO
TITLE "Lonely Days"
PERFORMER "Terry Gibbs Quartet"
INDEX 00 05:56:03
FILE "20 - Lonely Days.wav" WAVE
INDEX 01 00:00:00
TRACK 21 AUDIO
TITLE "Little 'C'"
PERFORMER "Terry Gibbs Quartet"
INDEX 00 02:42:07
FILE "21 - Little 'C'.wav" WAVE
INDEX 01 00:00:00
TRACK 22 AUDIO
TITLE "Just for Laughs"
PERFORMER "Terry Gibbs Quartet"
INDEX 00 03:15:12
FILE "22 - Just for Laughs.wav" WAVE
INDEX 01 00:00:00

Этот торрент недоступен для скачивания без регистрации, однако доступен по публичной magnet-ссылке (источники с публичных трекеров). Перед использованием ссылки прочтите, пожалуйста Пользовательское соглашение, а также как можно дольше оставайтесь на раздаче! Для того, чтобы скачать сам торрент-файл (который видит больше источников), а также для того, чтобы поблагодарить релизера, вам необходимо зарегистрироваться. Если регистрироваться лень - вы можете также попробовать скачать релиз по нашим партнерским ссылкам ниже. Кроме того, зарегистрированным пользователям не показывается всплывающая реклама при скачивании.

[underver.se].t223716.torrent
Трекер: Зарегистрирован   [ 06.10.2021 15:40 ]  
Статус: проверено (by Бишеп at 06.10.2021 15:40)
Поблагодарили: пока никто не поблагодарил...
Тип торрента: публичный - доступные источники с открытых трекеров: 
Размер: 456 MB (занимает 0.1 DVDR, для записи нужно 1 болванка DVDR/RW)
 
 

Яндекс.Метрика powered by Sphinx


В Н И М А Н И Е
Сайт не распространяет и не хранит электронные версии произведений, а лишь бесплатно и без коммерческой выгоды (не требуя взамен платы,
SMS и т.д.) предоставляет доступ к создаваемому пользователями каталогу ссылок на торрент-файлы, которые содержат только списки хеш-сумм.
Убедительная просьба с жалобами обращаться напрямую к пользователю, разместившему торрент файл.

Вверх