Loading...
Error

(Hard Bop) Art Blakey & The Jazz Messengers - Vol. 2: Mission Eternal (1995) [FLAC (Tracks+.Cue), Lossless]

Статистика раздачи
Размер:  467 MB   |    Зарегистрирован:  11 месяцев   |    Скачан:  1 раз

Полного источника не было: 3 месяца 29 дней

Сидов:  0  |  0 KB/s  ]   Личеров:  0  |  0 KB/s  ]

* - сиды/пиры с внешних источников

   
 
Автор Сообщение

Бишеп Пол:Муж

06-Окт-2021 16:10

Art Blakey & The Jazz Messengers - Vol. 2: Mission Eternal

Жанр: Hard Bop
Год выпуска: 1995
Носитель: CD
Производитель диска: Prestige - PRCD-24159-2
Аудиокодек: FLAC
Тип рипа: Tracks+.CUE
Битрейт аудио: lossless
Продолжительность: 01:14:01


Треклист:
01. Gertrude's Bounce (04:47)
02. Siempre Mi Amor (04:55)
03. Mission Eternal (12:12)
04. Moanin' (05:33)
05. A Chant for Bu (08:38)
06. One for Trane (06:11)
07. Along Came Betty (instrumental) (06:09)
08. Along Came Betty (vocal) (04:56)
09. Without a Song (05:36)
10. Love: For the One You Can't Have (06:25)
11. Fantasy in D (08:39)

Exact Audio Copy V1.1 from 23. June 2015 

EAC extraction logfile from 28. June 2021, 18:43

Art Blakey & The Jazz Messengers / Art Blakey & The Jazz Messengers, Volume 2: Mission Eternal

Used drive : HL-DT-STBD-RE WH14NS40 Adapter: 1 ID: 0

Read mode : Secure
Utilize accurate stream : Yes
Defeat audio cache : Yes
Make use of C2 pointers : No

Read offset correction : 6
Overread into Lead-In and Lead-Out : No
Fill up missing offset samples with silence : Yes
Delete leading and trailing silent blocks : No
Null samples used in CRC calculations : Yes
Used interface : Native Win32 interface for Win NT & 2000
Gap handling : Appended to previous track

Used output format : User Defined Encoder
Selected bitrate : 1024 kBit/s
Quality : High
Add ID3 tag : No
Command line compressor : C:\Program Files (x86)\Exact Audio Copy\Flac\flac.exe
Additional command line options : -8 -V -T "ARTIST=%artist%" -T "TITLE=%title%" -T "ALBUM=%albumtitle%" -T "DATE=%year%" -T "TRACKNUMBER=%tracknr%" -T "TOTALTRACKS=%numtracks%" -T "GENRE=%genre%" -T "ALBUMARTIST=%albumartist%" -T "ALBUM ARTIST=%albumartist%" -T "COMMENT=EAC Secure Mode, Test & Copy, AccurateRip, FLAC -8" %source%

TOC of the extracted CD

Track | Start | Length | Start sector | End sector
---------------------------------------------------------
1 | 0:00.00 | 4:46.50 | 0 | 21499
2 | 4:46.50 | 4:55.35 | 21500 | 43659
3 | 9:42.10 | 12:12.15 | 43660 | 98574
4 | 21:54.25 | 5:33.08 | 98575 | 123557
5 | 27:27.33 | 8:38.15 | 123558 | 162422
6 | 36:05.48 | 6:10.65 | 162423 | 190237
7 | 42:16.38 | 6:09.17 | 190238 | 217929
8 | 48:25.55 | 4:55.43 | 217930 | 240097
9 | 53:21.23 | 5:36.32 | 240098 | 265329
10 | 58:57.55 | 6:24.55 | 265330 | 294184
11 | 65:22.35 | 8:38.38 | 294185 | 333072

Track 1

Filename C:\01 - Gertrude's Bounce.wav

Pre-gap length 0:00:02.00

Peak level 100.0 %
Extraction speed 5.2 X
Track quality 100.0 %
Test CRC 28B82AD1
Copy CRC 28B82AD1
Accurately ripped (confidence 2) [192D8198] (AR v2)
Copy OK

Track 2

Filename C:\02 - Siempre Mi Amor.wav

Pre-gap length 0:00:02.27

Peak level 100.0 %
Extraction speed 4.9 X
Track quality 99.9 %
Test CRC 7DD6BE12
Copy CRC 7DD6BE12
Accurately ripped (confidence 2) [E85893E3] (AR v2)
Copy OK

Track 3

Filename C:\03 - Mission Eternal.wav

Pre-gap length 0:00:02.22

Peak level 100.0 %
Extraction speed 7.0 X
Track quality 100.0 %
Test CRC 20A12B39
Copy CRC 20A12B39
Accurately ripped (confidence 2) [8D0CD3AB] (AR v2)
Copy OK

Track 4

Filename C:\04 - Moanin'.wav

Pre-gap length 0:00:02.37

Peak level 100.0 %
Extraction speed 7.5 X
Track quality 100.0 %
Test CRC D14DBF51
Copy CRC D14DBF51
Accurately ripped (confidence 2) [50E984D7] (AR v2)
Copy OK

Track 5

Filename C:\05 - A Chant for Bu.wav

Pre-gap length 0:00:01.45

Peak level 100.0 %
Extraction speed 8.3 X
Track quality 100.0 %
Test CRC F3818514
Copy CRC F3818514
Accurately ripped (confidence 2) [92A26DDA] (AR v2)
Copy OK

Track 6

Filename C:\06 - One for Trane.wav

Pre-gap length 0:00:02.50

Peak level 100.0 %
Extraction speed 7.6 X
Track quality 99.9 %
Test CRC 03A9B603
Copy CRC 03A9B603
Accurately ripped (confidence 2) [B11883A2] (AR v2)
Copy OK

Track 7

Filename C:\07 - Along Came Betty (instrumental).wav

Pre-gap length 0:00:02.10

Peak level 99.9 %
Extraction speed 9.1 X
Track quality 100.0 %
Test CRC 4DCE6E99
Copy CRC 4DCE6E99
Accurately ripped (confidence 2) [9DB98A7D] (AR v2)
Copy OK

Track 8

Filename C:\08 - Along Came Betty (vocal).wav

Pre-gap length 0:00:02.07

Peak level 100.0 %
Extraction speed 9.2 X
Track quality 100.0 %
Test CRC 73C1AD14
Copy CRC 73C1AD14
Accurately ripped (confidence 3) [C44CB061] (AR v2)
Copy OK

Track 9

Filename C:\09 - Without a Song.wav

Pre-gap length 0:00:02.43

Peak level 99.9 %
Extraction speed 9.7 X
Track quality 100.0 %
Test CRC 8A1B00A0
Copy CRC 8A1B00A0
Accurately ripped (confidence 3) [37530968] (AR v2)
Copy OK

Track 10

Filename C:\10 - Love- For the One You Can't Have.wav

Pre-gap length 0:00:00.42

Peak level 100.0 %
Extraction speed 10.2 X
Track quality 100.0 %
Test CRC 8C7D46A8
Copy CRC 8C7D46A8
Accurately ripped (confidence 3) [747D083D] (AR v2)
Copy OK

Track 11

Filename C:\11 - Fantasy in D.wav

Pre-gap length 0:00:01.62

Peak level 100.0 %
Extraction speed 10.7 X
Track quality 100.0 %
Test CRC E206B47D
Copy CRC E206B47D
Accurately ripped (confidence 3) [2BBE4F8C] (AR v2)
Copy OK

All tracks accurately ripped

No errors occurred

End of status report

---- CUETools DB Plugin V2.1.6

[CTDB TOCID: FjAVJy4lTL2Bmm709N4c5TJsPTQ-] found
Submit result: FjAVJy4lTL2Bmm709N4c5TJsPTQ- has been confirmed
Track | CTDB Status
1 | (5/5) Accurately ripped
2 | (5/5) Accurately ripped
3 | (5/5) Accurately ripped
4 | (5/5) Accurately ripped
5 | (5/5) Accurately ripped
6 | (5/5) Accurately ripped
7 | (5/5) Accurately ripped
8 | (5/5) Accurately ripped
9 | (5/5) Accurately ripped
10 | (5/5) Accurately ripped
11 | (5/5) Accurately ripped

==== Log checksum 7B8771B1B3E5A0D61B14FB252300ECA20C0EB3A0B4B17C9A473EE8BCF82B232F ====
REM GENRE Jazz 
REM DATE 1995
REM DISCID A611580B
REM COMMENT "ExactAudioCopy v1.1"
PERFORMER "Art Blakey & The Jazz Messengers"
TITLE "Vol.2: Mission Eternal"
FILE "01 - Gertrude's Bounce.wav" WAVE
TRACK 01 AUDIO
TITLE "Gertrude's Bounce"
PERFORMER "Art Blakey & The Jazz Messengers"
INDEX 01 00:00:00
TRACK 02 AUDIO
TITLE "Siempre Mi Amor"
PERFORMER "Art Blakey & The Jazz Messengers"
INDEX 00 04:44:23
FILE "02 - Siempre Mi Amor.wav" WAVE
INDEX 01 00:00:00
TRACK 03 AUDIO
TITLE "Mission Eternal"
PERFORMER "Art Blakey & The Jazz Messengers"
INDEX 00 04:53:13
FILE "03 - Mission Eternal.wav" WAVE
INDEX 01 00:00:00
TRACK 04 AUDIO
TITLE "Moanin'"
PERFORMER "Art Blakey & The Jazz Messengers"
INDEX 00 12:09:53
FILE "04 - Moanin'.wav" WAVE
INDEX 01 00:00:00
TRACK 05 AUDIO
TITLE "A Chant for Bu"
PERFORMER "Art Blakey & The Jazz Messengers"
INDEX 00 05:31:38
FILE "05 - A Chant for Bu.wav" WAVE
INDEX 01 00:00:00
TRACK 06 AUDIO
TITLE "One for Trane"
PERFORMER "Art Blakey & The Jazz Messengers"
INDEX 00 08:35:40
FILE "06 - One for Trane.wav" WAVE
INDEX 01 00:00:00
TRACK 07 AUDIO
TITLE "Along Came Betty (instrumental)"
PERFORMER "Art Blakey & The Jazz Messengers"
INDEX 00 06:08:55
FILE "07 - Along Came Betty (instrumental).wav" WAVE
INDEX 01 00:00:00
TRACK 08 AUDIO
TITLE "Along Came Betty (vocal)"
PERFORMER "Art Blakey & The Jazz Messengers"
INDEX 00 06:07:10
FILE "08 - Along Came Betty (vocal).wav" WAVE
INDEX 01 00:00:00
TRACK 09 AUDIO
TITLE "Without a Song"
PERFORMER "Art Blakey & The Jazz Messengers"
INDEX 00 04:53:00
FILE "09 - Without a Song.wav" WAVE
INDEX 01 00:00:00
TRACK 10 AUDIO
TITLE "Love: For the One You Can't Have"
PERFORMER "Art Blakey & The Jazz Messengers"
INDEX 00 05:35:65
FILE "10 - Love- For the One You Can't Have.wav" WAVE
INDEX 01 00:00:00
TRACK 11 AUDIO
TITLE "Fantasy in D"
PERFORMER "Art Blakey & The Jazz Messengers"
INDEX 00 06:22:68
FILE "11 - Fantasy in D.wav" WAVE
INDEX 01 00:00:00

Этот торрент недоступен для скачивания без регистрации, однако доступен по публичной magnet-ссылке (источники с публичных трекеров). Перед использованием ссылки прочтите, пожалуйста Пользовательское соглашение, а также как можно дольше оставайтесь на раздаче! Для того, чтобы скачать сам торрент-файл (который видит больше источников), а также для того, чтобы поблагодарить релизера, вам необходимо зарегистрироваться. Если регистрироваться лень - вы можете также попробовать скачать релиз по нашим партнерским ссылкам ниже. Кроме того, зарегистрированным пользователям не показывается всплывающая реклама при скачивании.

[underver.se].t223722.torrent
Трекер: Зарегистрирован   [ 06.10.2021 16:10 ]  
Статус: проверено (by Бишеп at 06.10.2021 16:11)
Поблагодарили: пока никто не поблагодарил...
Тип торрента: публичный - доступные источники с открытых трекеров: 
Размер: 467 MB (занимает 0.1 DVDR, для записи нужно 1 болванка DVDR/RW)
 
 

Яндекс.Метрика powered by Sphinx


В Н И М А Н И Е
Сайт не распространяет и не хранит электронные версии произведений, а лишь бесплатно и без коммерческой выгоды (не требуя взамен платы,
SMS и т.д.) предоставляет доступ к создаваемому пользователями каталогу ссылок на торрент-файлы, которые содержат только списки хеш-сумм.
Убедительная просьба с жалобами обращаться напрямую к пользователю, разместившему торрент файл.

Вверх