Loading...
Error

В клетке [02х01-03 из 10] (Сергей Пикалов) [2021 г., драма, криминал, спорт, WEB-DLRip 1080p]

Статистика раздачи
Размер:  5,24 GB   |    Зарегистрирован:  5 дней   |    Скачан:  4 раза

Полного источника не было: 2 часа 18 минут

Сидов:  0  |  0 KB/s  ]   Личеров:  0  |  0 KB/s  ]

* - сиды/пиры с внешних источников

   
 
Автор Сообщение

FiNikola Пол:Муж

14-Окт-2021 02:10

В клетке [02х01-03 из 10]
Название: В клетке
Год выхода: 2021
Жанр: Драма, криминал, спорт
Режиссёр: Сергей Пикалов
Актеры: Павел Прилучный, Екатерина Маликова, Владимир Епифанцев, Артур Ваха, Алёна Михайлова, Роза Хайруллина, Вера Кинчева, Кай Алекс Гетц, Гела Месхи, Илья Глинников, Зепюр Брутян, Владимир Брест, Александр Прокопьев, Аслан Цаллати, ндрей Юртаев, Александра Астахова (II), Никита Кологривый, Ян Решетников, Максим Деричев, Вячеслав Ковалёв

Описание:
Сиквел остросюжетного сериала о некогда успешном бойце MMA Сергее «Волчке» Евдокимове. В новый виток истории герой входит с травмой, полученной год назад, во время боя с собственным отцом «Доком». Травма руки не дает ему участвовать в профессиональных соревнованиях. Однако, в ходе определенных событий, он вынужден вернуться к подпольным боям без правил и опять войти ненавистную ему клетку.

Страна: Россия
Студия: Производство ООО «А1 Студио» при участии ООО «Тим Филмз» по заказу Okko Studios, ООО «Кинофон»
Продолжительность: 3 х ~ 00:50:00
Язык: Русский

Премьера: 07 октября 2021 года (Okko)
Примечание: Без рекламы
Версия 18+

Формат: MKV
Качество: WEB-DLRip 1080p
Видео: MPEG-4 AVC, ~ 5000 Кбит/с, 1920x720
Звук: AC3, 2 ch, 192 Кбит/с
Субтитры: Отсутствуют
Общее
Уникальный идентификатор : 83035493831663537865173596013976010847 (0x3E780DED45B698A81846C78C90FAC05F)
Полное имя : D:V.kletke.S02.2021.WEB-DL.1080pV.kletke.S02.E01.2021.WEB-DL.1080p.mkv
Формат : Matroska
Версия формата : Version 4
Размер файла : 1,84 Гбайт
Продолжительность : 50 м. 51 с.
Общий поток : 5 185 Кбит/сек
Название фильма : V.kletke.S02.E01.2021.WEB-DL.1080p
Дата кодирования : UTC 2021-10-07 15:44:53
Программа кодирования : mkvmerge v60.0.0 ('Are We Copies?') 64-bit
Библиотека кодирования : libebml v1.4.2 + libmatroska v1.6.4
Attachments : poster.jpg

Видео
Идентификатор : 1
Формат : AVC
Формат/Информация : Advanced Video Codec
Профиль формата : [email protected]
Настройки формата : CABAC / 3 Ref Frames
Параметр CABAC формата : Да
Параметр RefFrames формата : 3 кадра
Идентификатор кодека : V_MPEG4/ISO/AVC
Продолжительность : 50 м. 51 с.
Битрейт : 5 000 Кбит/сек
Ширина : 1 920 пикселей
Высота : 720 пикселей
Соотношение сторон : 2,667
Режим частоты кадров : Постоянный
Частота кадров : 25,000 кадров/сек
Цветовое пространство : YUV
Субдискретизация насыщенности : 4:2:0
Битовая глубина : 8 бит
Тип развёртки : Прогрессивная
Бит/(Пиксели*Кадры) : 0.145
Размер потока : 1,77 Гбайт (96%)
Библиотека кодирования : x264 core 161 r3048 b86ae3c
Настройки программы : cabac=1 / ref=4 / deblock=1:1:1 / analyse=0x3:0x133 / me=umh / subme=9 / psy=1 / psy_rd=0.40:1.00 / mixed_ref=1 / me_range=24 / chroma_me=1 / trellis=0 / 8x8dct=1 / cqm=0 / deadzone=21,11 / fast_pskip=1 / chroma_qp_offset=-2 / threads=22 / lookahead_threads=1 / sliced_threads=0 / nr=0 / decimate=1 / interlaced=0 / bluray_compat=0 / constrained_intra=0 / bframes=8 / b_pyramid=1 / b_adapt=1 / b_bias=0 / direct=3 / weightb=1 / open_gop=0 / weightp=2 / keyint=75 / keyint_min=38 / scenecut=0 / intra_refresh=0 / rc_lookahead=30 / rc=2pass / mbtree=1 / bitrate=5000 / ratetol=1.0 / qcomp=0.80 / qpmin=1 / qpmax=69 / qpstep=4 / cplxblur=20.0 / qblur=0.5 / vbv_maxrate=7500 / vbv_bufsize=10000 / nal_hrd=none / filler=0 / ip_ratio=1.40 / aq=1:1.00
Default : Да
Forced : Нет
Цветовой диапазон : Limited
Основные цвета : BT.709
Характеристики трансфера : BT.709

Аудио
Идентификатор : 2
Формат : AC-3
Формат/Информация : Audio Coding 3
Коммерческое название : Dolby Digital
Идентификатор кодека : A_AC3
Продолжительность : 50 м. 51 с.
Вид битрейта : Постоянный
Битрейт : 192 Кбит/сек
Каналы : 2 канала
Channel layout : L R
Частота : 48,0 КГц
Частота кадров : 31,250 кадров/сек (1536 SPF)
Метод сжатия : С потерями
Размер потока : 69,8 Мбайт (4%)
Service kind : Complete Main
Default : Да
Forced : Нет

Этот торрент недоступен для скачивания без регистрации, однако доступен по публичной magnet-ссылке (источники с публичных трекеров). Перед использованием ссылки прочтите, пожалуйста Пользовательское соглашение, а также как можно дольше оставайтесь на раздаче! Для того, чтобы скачать сам торрент-файл (который видит больше источников), а также для того, чтобы поблагодарить релизера, вам необходимо зарегистрироваться. Если регистрироваться лень - вы можете также попробовать скачать релиз по нашим партнерским ссылкам ниже. Кроме того, зарегистрированным пользователям не показывается всплывающая реклама при скачивании.

[underver.se].t224542.torrent
Трекер: Зарегистрирован   [ 21.10.2021 00:42 ]  

Статус: T временная (by FiNikola at 21.10.2021 00:42)
Поблагодарили: пока никто не поблагодарил...
Тип торрента: публичный - доступные источники с открытых трекеров: 
Размер: 5,24 GB (занимает 1,2 DVDR, для записи нужно 2 болванки DVDR/RW)
 
 
Похожие темы
Форум Тема Автор Торрент Отв. Посл. сооб.
T xUSSR сериалы В клетке [02х01 из 10] (Сергей Пикалов) [2021 г., драма, криминал, спорт, WEB-DLRip] FiNikola
10 | 0

0 | 71

1

14.10.2021 02:25

T xUSSR сериалы В клетке [02х02 из 10] (Сергей Пикалов) [2021 г., драма, криминал, спорт, WEB-DLRip-AVC] FiNikola
29 | 7

0 | 61

1

14.10.2021 02:22

T xUSSR сериалы В клетке [02х02 из 10] (Сергей Пикалов) [2021 г., драма, криминал, спорт, WEB-DLRip] FiNikola
10 | 3

0 | 50

0

14.10.2021 02:18


Яндекс.Метрика powered by Sphinx


В Н И М А Н И Е
Сайт не распространяет и не хранит электронные версии произведений, а лишь бесплатно и без коммерческой выгоды (не требуя взамен платы,
SMS и т.д.) предоставляет доступ к создаваемому пользователями каталогу ссылок на торрент-файлы, которые содержат только списки хеш-сумм.
Убедительная просьба с жалобами обращаться напрямую к пользователю, разместившему торрент файл.

Вверх