Loading...
Error

(Trance, Euro House) The Tranzmitters - The Big Pound [CDM] (1998) [FLAC (tracks+.cue), lossless]

Статистика раздачи
Размер:  198 MB   |    Зарегистрирован:  11 месяцев   |    Скачан:  3 раза

Полного источника не было: 3 месяца 18 дней

Сидов:  0  |  0 KB/s  ]   Личеров:  0  |  0 KB/s  ]

* - сиды/пиры с внешних источников

   
 
Автор Сообщение

Renesans Пол:Муж

15-Окт-2021 05:11

The Tranzmitters / The Big Pound

Жанр: Trance, Euro House
Носитель: CDM
Год издания: 1998
Издатель (лейбл): Orbit Records
Номер по каталогу: 7243 895407 2 7

Аудиокодек: FLAC (*.flac)
Тип рипа: tracks+.cue
Продолжительность: 23:51
Источник: собственный рип
Наличие сканов в содержимом раздачи: да


01. The Tranzmitters - The Big Pound (Original Big Radio) (3:42)
02. The Tranzmitters - The Big Pound (Pollution Mix) (5:07)
03. The Tranzmitters - The Big Pound (Break Beat Mix) (5:06)
04. The Tranzmitters - The Big Pound (Direct Mix) (5:01)
05. The Tranzmitters - The Big Pound (Original Big Mix) (4:57)
 
Exact Audio Copy V1.5 from 20. February 2020

EAC extraction logfile from 6. March 2021, 21:06

The Tranzmitters / The Big Pound

Used drive : ASUS DRW-24B5ST Adapter: 1 ID: 0

Read mode : Secure
Utilize accurate stream : Yes
Defeat audio cache : Yes
Make use of C2 pointers : No

Read offset correction : 6
Overread into Lead-In and Lead-Out : No
Fill up missing offset samples with silence : Yes
Delete leading and trailing silent blocks : No
Null samples used in CRC calculations : Yes
Used interface : Native Win32 interface for Win NT & 2000
Gap handling : Appended to previous track

Used output format : User Defined Encoder
Selected bitrate : 128 kBit/s
Quality : High
Add ID3 tag : No
Command line compressor : D:\flac-1.3.2-win\win64\flac.exe
Additional command line options : -8 -V -T "ARTIST=%artist%" -T "TITLE=%title%" -T "ALBUM=%albumtitle%" -T "DATE=%year%" -T "TRACKNUMBER=%tracknr%" -T "GENRE=%genre%" -T "COMMENT=ripped by Andy aka yetiisyou" %source%

TOC of the extracted CD

Track | Start | Length | Start sector | End sector
---------------------------------------------------------
1 | 0:00.00 | 3:41.03 | 0 | 16577
2 | 3:41.03 | 5:06.29 | 16578 | 39556
3 | 8:47.32 | 5:05.65 | 39557 | 62496
4 | 13:53.22 | 5:00.31 | 62497 | 85027
5 | 18:53.53 | 4:56.69 | 85028 | 107296

Track 1

Filename M:\!Ripped by Andy aka yetiisyou\The Tranzmitters - The Big Pound [7243 895407 2 7] [1998]\01 The Big Pound (Original Big Radio).wav

Pre-gap length 0:00:02.00

Peak level 94.4 %
Extraction speed 3.6 X
Track quality 100.0 %
Test CRC 1E9BEB5A
Copy CRC 1E9BEB5A
Track not present in AccurateRip database
Copy OK

Track 2

Filename M:\!Ripped by Andy aka yetiisyou\The Tranzmitters - The Big Pound [7243 895407 2 7] [1998]\02 The Big Pound (Pollution Mix).wav

Pre-gap length 0:00:03.00

Peak level 94.4 %
Extraction speed 3.5 X
Track quality 99.9 %
Test CRC 39D942A2
Copy CRC 39D942A2
Track not present in AccurateRip database
Copy OK

Track 3

Filename M:\!Ripped by Andy aka yetiisyou\The Tranzmitters - The Big Pound [7243 895407 2 7] [1998]\03 The Big Pound (Break Beat Mix).wav

Pre-gap length 0:00:03.00

Peak level 94.4 %
Extraction speed 4.4 X
Track quality 100.0 %
Test CRC 22FEB9A9
Copy CRC 22FEB9A9
Track not present in AccurateRip database
Copy OK

Track 4

Filename M:\!Ripped by Andy aka yetiisyou\The Tranzmitters - The Big Pound [7243 895407 2 7] [1998]\04 The Big Pound (Direct Mix).wav

Pre-gap length 0:00:03.00

Peak level 94.4 %
Extraction speed 4.2 X
Track quality 99.9 %
Test CRC 13306D91
Copy CRC 13306D91
Track not present in AccurateRip database
Copy OK

Track 5

Filename M:\!Ripped by Andy aka yetiisyou\The Tranzmitters - The Big Pound [7243 895407 2 7] [1998]\05 The Big Pound (Original Big Mix).wav

Pre-gap length 0:00:03.00

Peak level 94.4 %
Extraction speed 5.3 X
Track quality 100.0 %
Test CRC 18A3136C
Copy CRC 18A3136C
Track not present in AccurateRip database
Copy OK

None of the tracks are present in the AccurateRip database

No errors occurred

End of status report

---- CUETools DB Plugin V2.1.6

[CTDB TOCID: brMl07oLsc.Hr9lM5n0HNa9ebdA-] found
Submit result: brMl07oLsc.Hr9lM5n0HNa9ebdA- has been confirmed
Track | CTDB Status
1 | (1/1) Accurately ripped
2 | (1/1) Accurately ripped
3 | (1/1) Accurately ripped
4 | (1/1) Accurately ripped
5 | (1/1) Accurately ripped

==== Log checksum 37CCAA8D84C65151F0425A7B0600ECEEBFC22129C5556C0CFF3041F19BC6E01D ====

 
REM GENRE Trance
REM DATE 1998
REM DISCID 33059605
REM COMMENT "ExactAudioCopy v1.5"
CATALOG 0724389540727
PERFORMER "The Tranzmitters"
TITLE "The Big Pound"
REM COMPOSER ""
FILE "01 The Big Pound (Original Big Radio).wav" WAVE
TRACK 01 AUDIO
TITLE "The Big Pound (Original Big Radio)"
PERFORMER "The Tranzmitters"
REM COMPOSER ""
ISRC ITL019800143
FLAGS DCP
INDEX 01 00:00:00
TRACK 02 AUDIO
TITLE "The Big Pound (Pollution Mix)"
PERFORMER "The Tranzmitters"
REM COMPOSER ""
ISRC ITL019800145
FLAGS DCP
INDEX 00 03:38:03
FILE "02 The Big Pound (Pollution Mix).wav" WAVE
INDEX 01 00:00:00
TRACK 03 AUDIO
TITLE "The Big Pound (Break Beat Mix)"
PERFORMER "The Tranzmitters"
REM COMPOSER ""
ISRC ITL019800144
FLAGS DCP
INDEX 00 05:03:29
FILE "03 The Big Pound (Break Beat Mix).wav" WAVE
INDEX 01 00:00:00
TRACK 04 AUDIO
TITLE "The Big Pound (Direct Mix)"
PERFORMER "The Tranzmitters"
REM COMPOSER ""
ISRC ITL019800141
FLAGS DCP
INDEX 00 05:02:65
FILE "04 The Big Pound (Direct Mix).wav" WAVE
INDEX 01 00:00:00
TRACK 05 AUDIO
TITLE "The Big Pound (Original Big Mix)"
PERFORMER "The Tranzmitters"
REM COMPOSER ""
ISRC ITL019800142
FLAGS DCP
INDEX 00 04:57:31
FILE "05 The Big Pound (Original Big Mix).wav" WAVE
INDEX 01 00:00:00

Этот торрент недоступен для скачивания без регистрации, однако доступен по публичной magnet-ссылке (источники с публичных трекеров). Перед использованием ссылки прочтите, пожалуйста Пользовательское соглашение, а также как можно дольше оставайтесь на раздаче! Для того, чтобы скачать сам торрент-файл (который видит больше источников), а также для того, чтобы поблагодарить релизера, вам необходимо зарегистрироваться. Если регистрироваться лень - вы можете также попробовать скачать релиз по нашим партнерским ссылкам ниже. Кроме того, зарегистрированным пользователям не показывается всплывающая реклама при скачивании.

[underver.se].t224641.torrent
Трекер: Зарегистрирован   [ 15.10.2021 05:11 ]  
Статус: проверено (by Renesans at 15.10.2021 05:11)
Поблагодарили: пока никто не поблагодарил...
Тип торрента: публичный - доступные источники с открытых трекеров: 
Размер: 198 MB (занимает 0.04 DVDR, для записи нужно 1 болванка DVDR/RW)
 
 

Яндекс.Метрика powered by Sphinx


В Н И М А Н И Е
Сайт не распространяет и не хранит электронные версии произведений, а лишь бесплатно и без коммерческой выгоды (не требуя взамен платы,
SMS и т.д.) предоставляет доступ к создаваемому пользователями каталогу ссылок на торрент-файлы, которые содержат только списки хеш-сумм.
Убедительная просьба с жалобами обращаться напрямую к пользователю, разместившему торрент файл.

Вверх