Loading...
Error

(Progressive House) T.O. - Diva [CDM] (1997) [FLAC (tracks+.cue), lossless]

Статистика раздачи
Размер:  193 MB   |    Зарегистрирован:  11 месяцев   |    Скачан:  2 раза

Полного источника не было: 5 месяцев

Сидов:  0  |  0 KB/s  ]   Личеров:  0  |  0 KB/s  ]

* - сиды/пиры с внешних источников

   
 
Автор Сообщение

Renesans Пол:Муж

15-Окт-2021 05:15

T.O. / Diva

Жанр: Progressive House
Носитель: CDM
Год издания: 1997
Издатель (лейбл): House Nation
Номер по каталогу: DST 055-70293.3

Аудиокодек: FLAC (*.flac)
Тип рипа: tracks+.cue
Продолжительность: 25:30
Источник: собственный рип
Наличие сканов в содержимом раздачи: да
01. T.O. - Diva (Bells Radio) (3:51)
02. T.O. - Diva (Timpani Radio) (3:53)
03. T.O. - Diva (Bells Club Mix) (8:55)
04. T.O. - Diva (Timpani Club Mix) (8:52)
 
Exact Audio Copy V1.5 from 20. February 2020

EAC extraction logfile from 8. March 2021, 19:58

T.O. / Diva

Used drive : ASUS DRW-24B5ST Adapter: 1 ID: 0

Read mode : Secure
Utilize accurate stream : Yes
Defeat audio cache : Yes
Make use of C2 pointers : No

Read offset correction : 6
Overread into Lead-In and Lead-Out : No
Fill up missing offset samples with silence : Yes
Delete leading and trailing silent blocks : No
Null samples used in CRC calculations : Yes
Used interface : Native Win32 interface for Win NT & 2000
Gap handling : Appended to previous track

Used output format : User Defined Encoder
Selected bitrate : 128 kBit/s
Quality : High
Add ID3 tag : No
Command line compressor : D:\flac-1.3.2-win\win64\flac.exe
Additional command line options : -8 -V -T "ARTIST=%artist%" -T "TITLE=%title%" -T "ALBUM=%albumtitle%" -T "DATE=%year%" -T "TRACKNUMBER=%tracknr%" -T "GENRE=%genre%" -T "COMMENT=ripped by Andy aka yetiisyou" %source%

TOC of the extracted CD

Track | Start | Length | Start sector | End sector
---------------------------------------------------------
1 | 0:00.00 | 3:50.65 | 0 | 17314
2 | 3:50.65 | 3:52.25 | 17315 | 34739
3 | 7:43.15 | 8:54.37 | 34740 | 74826
4 | 16:37.52 | 8:51.65 | 74827 | 114716

Track 1

Filename M:\!Ripped by Andy aka yetiisyou\T.O. - Diva [DST 055-70293.3] [1997]\01. T.O. - Diva (Bells Radio).wav

Pre-gap length 0:00:02.00

Peak level 98.0 %
Extraction speed 3.5 X
Track quality 100.0 %
Test CRC 1A6590BC
Copy CRC 1A6590BC
Track not present in AccurateRip database
Copy OK

Track 2

Filename M:\!Ripped by Andy aka yetiisyou\T.O. - Diva [DST 055-70293.3] [1997]\02. T.O. - Diva (Timpani Radio).wav

Pre-gap length 0:00:01.43

Peak level 98.0 %
Extraction speed 3.9 X
Track quality 100.0 %
Test CRC 739C4D6A
Copy CRC 739C4D6A
Track not present in AccurateRip database
Copy OK

Track 3

Filename M:\!Ripped by Andy aka yetiisyou\T.O. - Diva [DST 055-70293.3] [1997]\03. T.O. - Diva (Bells Club Mix).wav

Pre-gap length 0:00:01.43

Peak level 98.0 %
Extraction speed 4.3 X
Track quality 99.9 %
Test CRC 77ADCA90
Copy CRC 77ADCA90
Track not present in AccurateRip database
Copy OK

Track 4

Filename M:\!Ripped by Andy aka yetiisyou\T.O. - Diva [DST 055-70293.3] [1997]\04. T.O. - Diva (Timpani Club Mix).wav

Pre-gap length 0:00:01.42

Peak level 98.0 %
Extraction speed 4.9 X
Track quality 99.9 %
Test CRC 629D986D
Copy CRC 629D986D
Track not present in AccurateRip database
Copy OK

None of the tracks are present in the AccurateRip database

No errors occurred

End of status report

---- CUETools DB Plugin V2.1.6

[CTDB TOCID: yqXz1_cNL3qqXSb347FxIvbm.7g-] found
Submit result: yqXz1_cNL3qqXSb347FxIvbm.7g- has been confirmed
Track | CTDB Status
1 | (3/3) Accurately ripped
2 | (3/3) Accurately ripped
3 | (3/3) Accurately ripped
4 | (3/3) Accurately ripped

==== Log checksum 5FC5EBB96A9DCE5F0EA4DEC756F35D6547ED402D594E9ED883479FC9FCBEFDC2 ====

 
REM GENRE House
REM DATE 1997
REM DISCID 3305F904
REM COMMENT "ExactAudioCopy v1.5"
CATALOG 0000000000000
PERFORMER "T.O."
TITLE "Diva"
REM COMPOSER ""
FILE "01. T.O. - Diva (Bells Radio).wav" WAVE
TRACK 01 AUDIO
TITLE "Diva (Bells Radio)"
PERFORMER "T.O."
REM COMPOSER ""
INDEX 01 00:00:00
TRACK 02 AUDIO
TITLE "Diva (Timpani Radio)"
PERFORMER "T.O."
REM COMPOSER ""
INDEX 00 03:49:22
FILE "02. T.O. - Diva (Timpani Radio).wav" WAVE
INDEX 01 00:00:00
TRACK 03 AUDIO
TITLE "Diva (Bells Club Mix)"
PERFORMER "T.O."
REM COMPOSER ""
INDEX 00 03:50:57
FILE "03. T.O. - Diva (Bells Club Mix).wav" WAVE
INDEX 01 00:00:00
TRACK 04 AUDIO
TITLE "Diva (Timpani Club Mix)"
PERFORMER "T.O."
REM COMPOSER ""
INDEX 00 08:52:70
FILE "04. T.O. - Diva (Timpani Club Mix).wav" WAVE
INDEX 01 00:00:00

Этот торрент недоступен для скачивания без регистрации, однако доступен по публичной magnet-ссылке (источники с публичных трекеров). Перед использованием ссылки прочтите, пожалуйста Пользовательское соглашение, а также как можно дольше оставайтесь на раздаче! Для того, чтобы скачать сам торрент-файл (который видит больше источников), а также для того, чтобы поблагодарить релизера, вам необходимо зарегистрироваться. Если регистрироваться лень - вы можете также попробовать скачать релиз по нашим партнерским ссылкам ниже. Кроме того, зарегистрированным пользователям не показывается всплывающая реклама при скачивании.

[underver.se].t224642.torrent
Трекер: Зарегистрирован   [ 15.10.2021 05:15 ]  
Статус: проверено (by Renesans at 15.10.2021 05:15)
Поблагодарили: пока никто не поблагодарил...
Тип торрента: публичный - доступные источники с открытых трекеров: 
Размер: 193 MB (занимает 0.04 DVDR, для записи нужно 1 болванка DVDR/RW)
 
 

Яндекс.Метрика powered by Sphinx


В Н И М А Н И Е
Сайт не распространяет и не хранит электронные версии произведений, а лишь бесплатно и без коммерческой выгоды (не требуя взамен платы,
SMS и т.д.) предоставляет доступ к создаваемому пользователями каталогу ссылок на торрент-файлы, которые содержат только списки хеш-сумм.
Убедительная просьба с жалобами обращаться напрямую к пользователю, разместившему торрент файл.

Вверх