Loading...
Error

(Trance) Strings Of Harmony - Sadness [CDM] (1999) [FLAC (tracks+.cue), lossless]

Статистика раздачи
Размер:  192 MB   |    Зарегистрирован:  11 месяцев   |    Скачан:  4 раза

Полного источника не было: 6 месяцев

Сидов:  0  |  0 KB/s  ]   Личеров:  0  |  0 KB/s  ]

* - сиды/пиры с внешних источников

   
 
Автор Сообщение

Renesans Пол:Муж

15-Окт-2021 05:17

Strings Of Harmony / Sadness

Жанр: Trance
Носитель: CDM
Год издания: 1999
Издатель (лейбл): Arcade
Номер по каталогу: ARC 1032-8

Аудиокодек: FLAC (*.flac)
Тип рипа: tracks+.cue
Продолжительность: 22:51
Источник: собственный рип
Наличие сканов в содержимом раздачи: да


01. Strings Of Harmony - Sadness (Radio Cut) (3:28)
02. Strings Of Harmony - Sadness (John B. Norman's Radio Cut) (3:33)
03. Strings Of Harmony - Sadness (Clubmix) (8:18)
04. Strings Of Harmony - Sadness (John B. Norman's 12' Mix) (7:34)
 
Exact Audio Copy V1.6 from 23. October 2020

EAC extraction logfile from 9. March 2021, 21:17

Strings Of Harmony / Sadness

Used drive : ASUS DRW-24B5ST Adapter: 1 ID: 0

Read mode : Secure
Utilize accurate stream : Yes
Defeat audio cache : Yes
Make use of C2 pointers : No

Read offset correction : 6
Overread into Lead-In and Lead-Out : No
Fill up missing offset samples with silence : Yes
Delete leading and trailing silent blocks : No
Null samples used in CRC calculations : Yes
Used interface : Native Win32 interface for Win NT & 2000
Gap handling : Appended to previous track

Used output format : User Defined Encoder
Selected bitrate : 128 kBit/s
Quality : High
Add ID3 tag : No
Command line compressor : D:\flac-1.3.2-win\win64\flac.exe
Additional command line options : -8 -V -T "ARTIST=%artist%" -T "TITLE=%title%" -T "ALBUM=%albumtitle%" -T "DATE=%year%" -T "TRACKNUMBER=%tracknr%" -T "GENRE=%genre%" -T "COMMENT=ripped by Andy aka yetiisyou" %source%

TOC of the extracted CD

Track | Start | Length | Start sector | End sector
---------------------------------------------------------
1 | 0:00.00 | 3:27.42 | 0 | 15566
2 | 3:27.42 | 3:32.23 | 15567 | 31489
3 | 6:59.65 | 8:17.59 | 31490 | 68823
4 | 15:17.49 | 7:33.13 | 68824 | 102811

Track 1

Filename M:\!Ripped by Andy aka yetiisyou\Strings Of Harmony - Sadness [ARC 1032-8] [1999]\01. Strings Of Harmony - Sadness (Radio Cut).wav

Pre-gap length 0:00:02.00

Peak level 100.0 %
Extraction speed 3.3 X
Track quality 100.0 %
Test CRC EAB6F653
Copy CRC EAB6F653
Accurately ripped (confidence 1) [51D8DA12] (AR v2)
Copy OK

Track 2

Filename M:\!Ripped by Andy aka yetiisyou\Strings Of Harmony - Sadness [ARC 1032-8] [1999]\02. Strings Of Harmony - Sadness (John B. Norman's Radio Cut).wav

Pre-gap length 0:00:02.00

Peak level 97.7 %
Extraction speed 3.7 X
Track quality 100.0 %
Test CRC 4E2D42F0
Copy CRC 4E2D42F0
Accurately ripped (confidence 1) [E4029C45] (AR v2)
Copy OK

Track 3

Filename M:\!Ripped by Andy aka yetiisyou\Strings Of Harmony - Sadness [ARC 1032-8] [1999]\03. Strings Of Harmony - Sadness (Clubmix).wav

Pre-gap length 0:00:02.00

Peak level 97.7 %
Extraction speed 4.6 X
Track quality 100.0 %
Test CRC D13676AB
Copy CRC D13676AB
Accurately ripped (confidence 1) [BF4A0034] (AR v2)
Copy OK

Track 4

Filename M:\!Ripped by Andy aka yetiisyou\Strings Of Harmony - Sadness [ARC 1032-8] [1999]\04. Strings Of Harmony - Sadness (John B. Norman's 12'' Mix).wav

Pre-gap length 0:00:02.00

Peak level 97.7 %
Extraction speed 4.6 X
Track quality 99.9 %
Test CRC C9661B25
Copy CRC C9661B25
Accurately ripped (confidence 1) [EF6F9DC8] (AR v2)
Copy OK

All tracks accurately ripped

No errors occurred

End of status report

---- CUETools DB Plugin V2.1.6

[CTDB TOCID: cHlymx7EuUOsEtebRnMf2fGLFeM-] found
Submit result: cHlymx7EuUOsEtebRnMf2fGLFeM- has been confirmed
Track | CTDB Status
1 | (1/1) Accurately ripped
2 | (1/1) Accurately ripped
3 | (1/1) Accurately ripped
4 | (1/1) Accurately ripped

==== Log checksum D00E44A6BAF541F2AB95F7284CAE76E180F659C7BFC75FE8719F2D79E2C5124A ====

 
REM DATE 1999
REM DISCID 27055A04
REM COMMENT "ExactAudioCopy v1.6"
PERFORMER "Strings Of Harmony"
TITLE "Sadness"
REM COMPOSER ""
FILE "01. Strings Of Harmony - Sadness (Radio Cut).wav" WAVE
TRACK 01 AUDIO
TITLE "Sadness (Radio Cut)"
PERFORMER "Strings Of Harmony"
REM COMPOSER ""
INDEX 01 00:00:00
TRACK 02 AUDIO
TITLE "Sadness (John B. Norman's Radio Cut)"
PERFORMER "Strings Of Harmony"
REM COMPOSER ""
INDEX 00 03:25:42
FILE "02. Strings Of Harmony - Sadness (John B. Norman's Radio Cut).wav" WAVE
INDEX 01 00:00:00
TRACK 03 AUDIO
TITLE "Sadness (Clubmix)"
PERFORMER "Strings Of Harmony"
REM COMPOSER ""
INDEX 00 03:30:23
FILE "03. Strings Of Harmony - Sadness (Clubmix).wav" WAVE
INDEX 01 00:00:00
TRACK 04 AUDIO
TITLE "Sadness (John B. Norman's 12' Mix)"
PERFORMER "Strings Of Harmony"
REM COMPOSER ""
INDEX 00 08:15:59
FILE "04. Strings Of Harmony - Sadness (John B. Norman's 12'' Mix).wav" WAVE
INDEX 01 00:00:00

Этот торрент недоступен для скачивания без регистрации, однако доступен по публичной magnet-ссылке (источники с публичных трекеров). Перед использованием ссылки прочтите, пожалуйста Пользовательское соглашение, а также как можно дольше оставайтесь на раздаче! Для того, чтобы скачать сам торрент-файл (который видит больше источников), а также для того, чтобы поблагодарить релизера, вам необходимо зарегистрироваться. Если регистрироваться лень - вы можете также попробовать скачать релиз по нашим партнерским ссылкам ниже. Кроме того, зарегистрированным пользователям не показывается всплывающая реклама при скачивании.

[underver.se].t224643.torrent
Трекер: Зарегистрирован   [ 15.10.2021 05:17 ]  
Статус: проверено (by Renesans at 15.10.2021 05:18)
Поблагодарили: 1 человек
Тип торрента: публичный - доступные источники с открытых трекеров: 
Размер: 192 MB (занимает 0.04 DVDR, для записи нужно 1 болванка DVDR/RW)
 
 

Яндекс.Метрика powered by Sphinx


В Н И М А Н И Е
Сайт не распространяет и не хранит электронные версии произведений, а лишь бесплатно и без коммерческой выгоды (не требуя взамен платы,
SMS и т.д.) предоставляет доступ к создаваемому пользователями каталогу ссылок на торрент-файлы, которые содержат только списки хеш-сумм.
Убедительная просьба с жалобами обращаться напрямую к пользователю, разместившему торрент файл.

Вверх