Loading...
Error

(House, Hard House) DJ Disco - Stamp Your Feet [WEB] (2021) [FLAC (tracks), lossless]

Статистика раздачи
Размер:  375 MB   |    Зарегистрирован:  11 месяцев   |    Скачан:  4 раза

Полного источника не было: 5 месяцев 6 дней

Сидов:  0  |  0 KB/s  ]   Личеров:  0  |  0 KB/s  ]

* - сиды/пиры с внешних источников

   
 
Автор Сообщение

Renesans Пол:Муж

15-Окт-2021 07:01

DJ Disco / Stamp Your Feet

Жанр: House, Hard House
Носитель: WEB
Год издания: 2021
Издатель (лейбл): Klubbkontrol
Номер по каталогу: KLU 059

Аудиокодек: FLAC (*.flac)
Тип рипа: tracks
Продолжительность: 51:58
Источник: deezer
Наличие сканов в содержимом раздачи: нет
01. DJ Disco - Stamp Your Feet (3:48)
02. DJ Disco - Stamp Your Feet (Extended Mix) (5:44)
03. DJ Disco - Stamp Your Feet (Re-Mastered Extended Edit) (4:30)
04. DJ Disco - Stamp Your Feet (Marco V & Benjamin Remix) (5:14)
05. DJ Disco - Stamp Your Feet (Remix Edit) (4:57)
06. DJ Disco - Let's Dance (3:18)
07. DJ Disco - Let's Dance (Silvio Ecomo Remix) (6:37)
08. DJ Disco - Superfreak (4:40)
09. DJ Disco - Stamp Your Feet (Klubbheads 2005 Remix) (6:12)
10. DJ Disco - Stamp Your Feet (Drunkenmunky Remix) (7:03)
https://www.junodownload.com/products/dj-disco-stam...-e-p/5143881-02/
 
-----------------------

DON'T MODIFY THIS FILE

-----------------------

PERFORMER: auCDtect Task Manager, ver. 1.6.0 RC1 build 1.6.0.1
Copyright (c) 2008-2010 y-soft. All rights reserved
http://y-soft.org

ANALYZER: auCDtect: CD records authenticity detector, version 0.8.2
Copyright (c) 2004 Oleg Berngardt. All rights reserved.
Copyright (c) 2004 Alexander Djourik. All rights reserved.

FILE: 10 - DJ Disco (NL) - Stamp Your Feet (Drunkenmunky Remix).flac
Size: 57820614 Hash: 1B21CD5E860AB2D7B3C56321A0CBDB60 Accuracy: -m0
Conclusion: CDDA 100%
Signature: E35B7D51337F82A98AA9FFBE772ABF2E55BF0623
FILE: 09 - DJ Disco (NL) - Stamp Your Feet (Klubbheads 2005 Remix).flac
Size: 48706909 Hash: B971518329620E03154493E829366EF7 Accuracy: -m0
Conclusion: CDDA 100%
Signature: 1C017016922D50C71AFF739E44DB73A9945FE493
FILE: 08 - DJ Disco (NL) - Superfreak.flac
Size: 31897759 Hash: 1E6395AA1F818189E605A8FD54B52C69 Accuracy: -m0
Conclusion: CDDA 100%
Signature: D3DE26A90D55E927710F50BE93FFD5428E1EB7DC
FILE: 07 - DJ Disco (NL) - Let's Dance (Silvio Ecomo Remix).flac
Size: 46354328 Hash: D9FE6D8CBF6A513504907699AD17079A Accuracy: -m0
Conclusion: CDDA 100%
Signature: 00F37ADBAF253EA9F7BD9CCA671122A067A2A7AC
FILE: 06 - DJ Disco (NL) - Let's Dance.flac
Size: 22152125 Hash: F8E874D01EC8D967C6A22E3F86764ED3 Accuracy: -m0
Conclusion: CDDA 100%
Signature: 022929D52C435A92E015F0F6D294DB01167D2559
FILE: 05 - DJ Disco (NL) - Stamp Your Feet (Remix Edit).flac
Size: 39050763 Hash: 6D4E9367A1C6B283933C6A88E0018A57 Accuracy: -m0
Conclusion: CDDA 100%
Signature: 7ACFC2804EBAE5917767A9E3D6E1743C1A9D6860
FILE: 04 - DJ Disco (NL) - Stamp Your Feet (Marco V & Benjamin Remix).flac
Size: 42318986 Hash: 70B33758F8767F1ECB4D8E6CCFB5B320 Accuracy: -m0
Conclusion: CDDA 100%
Signature: 7BCA7037216C9480AD07C0D4CE4FDC7E3C49293A
FILE: 03 - DJ Disco (NL) - Stamp Your Feet (Re-mastered Extended Edit).flac
Size: 34463988 Hash: 1A939D39C13DCD4244B66B357D2996F9 Accuracy: -m0
Conclusion: MPEG 95%
Signature: E14286ED26DCAC43DD9762117DB641D0F4BFEDC9
FILE: 02 - DJ Disco (NL) - Stamp Your Feet (Extended Mix).flac
Size: 41721759 Hash: 1FA8374288AE48DAC398D153F3AB5D7F Accuracy: -m0
Conclusion: CDDA 100%
Signature: 85B496861C9CDC59D31EEDECD646CD4D180D1EE2
FILE: 01 - DJ Disco (NL) - Stamp Your Feet.flac
Size: 28236620 Hash: 561DCFB16B54C06AF789844747AE610F Accuracy: -m0
Conclusion: CDDA 99%
Signature: BA3A9D76D8C53608752F8D8A7A312D37972E3F06

 
foobar2000 1.1.15 / Dynamic Range Meter 1.1.1
log date: 2021-10-05 21:04:04

--------------------------------------------------------------------------------
Analyzed: DJ Disco / Stamp Your Feet E.P.
--------------------------------------------------------------------------------

DR Peak RMS Duration Track
--------------------------------------------------------------------------------
DR11 -0.18 dB -12.58 dB 3:48 01-Stamp Your Feet
DR9 -0.06 dB -10.25 dB 5:43 02-Stamp Your Feet (Extended Mix)
DR6 0.00 dB -7.57 dB 4:29 03-Stamp Your Feet (Re-Mastered Extended Edit)
DR6 -0.10 dB -7.14 dB 5:13 04-Stamp Your Feet (Marco V & Benjamin Remix)
DR5 -0.10 dB -6.50 dB 4:57 05-Stamp Your Feet (Remix Edit)
DR9 0.00 dB -11.15 dB 3:18 06-Let's Dance
DR6 0.00 dB -7.84 dB 6:37 07-Let's Dance (Silvio Ecomo Remix)
DR10 0.00 dB -11.32 dB 4:39 08-Superfreak
DR5 0.00 dB -6.69 dB 6:11 09-Stamp Your Feet (Klubbheads 2005 Remix)
DR4 0.00 dB -6.44 dB 7:03 10-Stamp Your Feet (Drunkenmunky Remix)
--------------------------------------------------------------------------------

Number of tracks: 10
Official DR value: DR7

Samplerate: 44100 Hz
Channels: 2
Bits per sample: 16
Bitrate: 1093 kbps
Codec: FLAC
================================================================================

Этот торрент недоступен для скачивания без регистрации, однако доступен по публичной magnet-ссылке (источники с публичных трекеров). Перед использованием ссылки прочтите, пожалуйста Пользовательское соглашение, а также как можно дольше оставайтесь на раздаче! Для того, чтобы скачать сам торрент-файл (который видит больше источников), а также для того, чтобы поблагодарить релизера, вам необходимо зарегистрироваться. Если регистрироваться лень - вы можете также попробовать скачать релиз по нашим партнерским ссылкам ниже. Кроме того, зарегистрированным пользователям не показывается всплывающая реклама при скачивании.

[underver.se].t224650.torrent
Трекер: Зарегистрирован   [ 15.10.2021 07:01 ]  
Статус: проверено (by Renesans at 15.10.2021 07:04)
Поблагодарили: пока никто не поблагодарил...
Тип торрента: публичный - доступные источники с открытых трекеров: 
Размер: 375 MB (занимает 0.08 DVDR, для записи нужно 1 болванка DVDR/RW)
 
 

Яндекс.Метрика powered by Sphinx


В Н И М А Н И Е
Сайт не распространяет и не хранит электронные версии произведений, а лишь бесплатно и без коммерческой выгоды (не требуя взамен платы,
SMS и т.д.) предоставляет доступ к создаваемому пользователями каталогу ссылок на торрент-файлы, которые содержат только списки хеш-сумм.
Убедительная просьба с жалобами обращаться напрямую к пользователю, разместившему торрент файл.

Вверх