Loading...
Error

(Hard Trance) Special Force - The Hype [CDM] (2000) [FLAC (tracks+.cue), lossless]

Статистика раздачи
Размер:  205 MB   |    Зарегистрирован:  11 месяцев   |    Скачан:  3 раза

Полного источника не было: 6 месяцев

Сидов:  0  |  0 KB/s  ]   Личеров:  0  |  0 KB/s  ]

* - сиды/пиры с внешних источников

   
 
Автор Сообщение

Renesans Пол:Муж

15-Окт-2021 07:09

Special Force / The Hype

Жанр: Hard Trance
Носитель: CDM
Год издания: 2000
Издатель (лейбл): Gang Go Music
Номер по каталогу: 0107085GAG

Аудиокодек: FLAC (*.flac)
Тип рипа: tracks+.cue
Продолжительность: 22:37
Источник: собственный рип
Наличие сканов в содержимом раздачи: да
01. Special Force - The Hype (Short Cut 1) (3:24)
02. Special Force - The Hype (Short Cut 2) (3:40)
03. Special Force - The Hype (Mix 1) (7:26)
04. Special Force - The Hype (Mix 2) (8:08)
 
Exact Audio Copy V1.5 from 20. February 2020

EAC extraction logfile from 6. March 2021, 22:12

Special Force / The Hype

Used drive : ASUS DRW-24B5ST Adapter: 1 ID: 0

Read mode : Secure
Utilize accurate stream : Yes
Defeat audio cache : Yes
Make use of C2 pointers : No

Read offset correction : 6
Overread into Lead-In and Lead-Out : No
Fill up missing offset samples with silence : Yes
Delete leading and trailing silent blocks : No
Null samples used in CRC calculations : Yes
Used interface : Native Win32 interface for Win NT & 2000
Gap handling : Appended to previous track

Used output format : User Defined Encoder
Selected bitrate : 128 kBit/s
Quality : High
Add ID3 tag : No
Command line compressor : D:\flac-1.3.2-win\win64\flac.exe
Additional command line options : -8 -V -T "ARTIST=%artist%" -T "TITLE=%title%" -T "ALBUM=%albumtitle%" -T "DATE=%year%" -T "TRACKNUMBER=%tracknr%" -T "GENRE=%genre%" -T "COMMENT=ripped by Andy aka yetiisyou" %source%

TOC of the extracted CD

Track | Start | Length | Start sector | End sector
---------------------------------------------------------
1 | 0:00.00 | 3:23.65 | 0 | 15289
2 | 3:23.65 | 3:39.32 | 15290 | 31746
3 | 7:03.22 | 7:25.68 | 31747 | 65189
4 | 14:29.15 | 8:07.07 | 65190 | 101721

Track 1

Filename M:\!Ripped by Andy aka yetiisyou\Special Force - The Hype [0107085GAG] [2000]\01 The Hype (Short Cut 1).wav

Pre-gap length 0:00:02.00

Peak level 99.8 %
Extraction speed 2.6 X
Track quality 99.9 %
Test CRC 86AD79CB
Copy CRC 86AD79CB
Accurately ripped (confidence 1) [3B1C3804] (AR v2)
Copy OK

Track 2

Filename M:\!Ripped by Andy aka yetiisyou\Special Force - The Hype [0107085GAG] [2000]\02 The Hype (Short Cut 2).wav

Peak level 99.3 %
Extraction speed 3.0 X
Track quality 99.9 %
Test CRC 5E7E25BA
Copy CRC 5E7E25BA
Accurately ripped (confidence 1) [8D147536] (AR v2)
Copy OK

Track 3

Filename M:\!Ripped by Andy aka yetiisyou\Special Force - The Hype [0107085GAG] [2000]\03 The Hype (Mix 1).wav

Peak level 99.8 %
Extraction speed 4.5 X
Track quality 100.0 %
Test CRC 304B3042
Copy CRC 304B3042
Accurately ripped (confidence 1) [AB23B5B7] (AR v2)
Copy OK

Track 4

Filename M:\!Ripped by Andy aka yetiisyou\Special Force - The Hype [0107085GAG] [2000]\04 The Hype (Mix 2).wav

Pre-gap length 0:00:01.43

Peak level 99.3 %
Extraction speed 5.1 X
Track quality 100.0 %
Test CRC 548BDD37
Copy CRC 548BDD37
Accurately ripped (confidence 1) [8FF60940] (AR v2)
Copy OK

All tracks accurately ripped

No errors occurred

End of status report

---- CUETools DB Plugin V2.1.6

[CTDB TOCID: C55zIePFEJUSbvKaZyQIh9V9_vw-] found
Submit result: C55zIePFEJUSbvKaZyQIh9V9_vw- has been confirmed
Track | CTDB Status
1 | (10/10) Accurately ripped
2 | (10/10) Accurately ripped
3 | (10/10) Accurately ripped
4 | (10/10) Accurately ripped

==== Log checksum E185A2DD08618278EAFF0E5DD3D4FF1F12F84D5E7FEC8DD968FB3F7C44922B4E ====

 
REM DATE 1999
REM DISCID 24054C04
REM COMMENT "ExactAudioCopy v1.5"
CATALOG 4029758070857
PERFORMER "Special Force"
TITLE "The Hype"
REM COMPOSER ""
FILE "01 The Hype (Short Cut 1).wav" WAVE
TRACK 01 AUDIO
TITLE "The Hype (Short Cut 1)"
PERFORMER "Special Force"
REM COMPOSER ""
ISRC DEH849900775
INDEX 01 00:00:00
FILE "02 The Hype (Short Cut 2).wav" WAVE
TRACK 02 AUDIO
TITLE "The Hype (Short Cut 2)"
PERFORMER "Special Force"
REM COMPOSER ""
ISRC DEH849900776
INDEX 01 00:00:00
FILE "03 The Hype (Mix 1).wav" WAVE
TRACK 03 AUDIO
TITLE "The Hype (Mix 1)"
PERFORMER "Special Force"
REM COMPOSER ""
ISRC DEH849900772
INDEX 01 00:00:00
TRACK 04 AUDIO
TITLE "The Hype (Mix 2)"
PERFORMER "Special Force"
REM COMPOSER ""
ISRC DEH849900773
INDEX 00 07:24:25
FILE "04 The Hype (Mix 2).wav" WAVE
INDEX 01 00:00:00

Этот торрент недоступен для скачивания без регистрации, однако доступен по публичной magnet-ссылке (источники с публичных трекеров). Перед использованием ссылки прочтите, пожалуйста Пользовательское соглашение, а также как можно дольше оставайтесь на раздаче! Для того, чтобы скачать сам торрент-файл (который видит больше источников), а также для того, чтобы поблагодарить релизера, вам необходимо зарегистрироваться. Если регистрироваться лень - вы можете также попробовать скачать релиз по нашим партнерским ссылкам ниже. Кроме того, зарегистрированным пользователям не показывается всплывающая реклама при скачивании.

[underver.se].t224652.torrent
Трекер: Зарегистрирован   [ 15.10.2021 07:09 ]  
Статус: проверено (by Renesans at 15.10.2021 07:11)
Поблагодарили: пока никто не поблагодарил...
Тип торрента: публичный - доступные источники с открытых трекеров: 
Размер: 205 MB (занимает 0.05 DVDR, для записи нужно 1 болванка DVDR/RW)
 
 

Яндекс.Метрика powered by Sphinx


В Н И М А Н И Е
Сайт не распространяет и не хранит электронные версии произведений, а лишь бесплатно и без коммерческой выгоды (не требуя взамен платы,
SMS и т.д.) предоставляет доступ к создаваемому пользователями каталогу ссылок на торрент-файлы, которые содержат только списки хеш-сумм.
Убедительная просьба с жалобами обращаться напрямую к пользователю, разместившему торрент файл.

Вверх