Loading...
Error

(Trance) Soul Hunter - Your Soul Is Mine [CDM] [1996, FLAC (tracks+.cue), lossless]

Статистика раздачи
Размер:  195 MB   |    Зарегистрирован:  11 месяцев   |    Скачан:  3 раза

Полного источника не было: 6 месяцев

Сидов:  0  |  0 KB/s  ]   Личеров:  0  |  0 KB/s  ]

* - сиды/пиры с внешних источников

   
 
Автор Сообщение

Renesans Пол:Муж

15-Окт-2021 07:13

Soul Hunter / Your Soul Is Mine

Жанр: Trance
Носитель: CDM
Год издания: 1996
Издатель (лейбл): Acalwan
Номер по каталогу: ACA 9611-8

Аудиокодек: FLAC (*.flac)
Тип рипа: tracks+.cue
Продолжительность: 25:46
Источник: собственный рип
Наличие сканов в содержимом раздачи: да
01. Soul Hunter - Your Soul Is Mine (Radio Edit) (4:08)
02. Soul Hunter - Your Soul Is Mine (8:10)
03. Soul Hunter - Stiffy (Sussex Mix) (7:06)
04. Soul Hunter - Fears With Tears (6:23)
 
Exact Audio Copy V1.6 from 23. October 2020

EAC extraction logfile from 9. March 2021, 22:00

Soul Hunter / Your Soul Is Mine

Used drive : ASUS DRW-24B5ST Adapter: 1 ID: 0

Read mode : Secure
Utilize accurate stream : Yes
Defeat audio cache : Yes
Make use of C2 pointers : No

Read offset correction : 6
Overread into Lead-In and Lead-Out : No
Fill up missing offset samples with silence : Yes
Delete leading and trailing silent blocks : No
Null samples used in CRC calculations : Yes
Used interface : Native Win32 interface for Win NT & 2000
Gap handling : Appended to previous track

Used output format : User Defined Encoder
Selected bitrate : 128 kBit/s
Quality : High
Add ID3 tag : No
Command line compressor : D:\flac-1.3.2-win\win64\flac.exe
Additional command line options : -8 -V -T "ARTIST=%artist%" -T "TITLE=%title%" -T "ALBUM=%albumtitle%" -T "DATE=%year%" -T "TRACKNUMBER=%tracknr%" -T "GENRE=%genre%" -T "COMMENT=ripped by Andy aka yetiisyou" %source%

TOC of the extracted CD

Track | Start | Length | Start sector | End sector
---------------------------------------------------------
1 | 0:00.00 | 4:07.34 | 0 | 18558
2 | 4:07.34 | 8:09.35 | 18559 | 55268
3 | 12:16.69 | 7:05.68 | 55269 | 87211
4 | 19:22.62 | 6:22.51 | 87212 | 115912

Track 1

Filename M:\!Ripped by Andy aka yetiisyou\Soul Hunter - Your Soul Is Mine [ACA 9611-8] [1996]\01. Soul Hunter - Your Soul Is Mine (Radio Edit).wav

Pre-gap length 0:00:02.00

Peak level 94.9 %
Extraction speed 3.4 X
Track quality 100.0 %
Test CRC 352EA055
Copy CRC 352EA055
Accurately ripped (confidence 1) [8BF935BF] (AR v2)
Copy OK

Track 2

Filename M:\!Ripped by Andy aka yetiisyou\Soul Hunter - Your Soul Is Mine [ACA 9611-8] [1996]\02. Soul Hunter - Your Soul Is Mine.wav

Pre-gap length 0:00:01.72

Peak level 94.9 %
Extraction speed 4.3 X
Track quality 100.0 %
Test CRC CB1AE80C
Copy CRC CB1AE80C
Accurately ripped (confidence 1) [E4B9BE86] (AR v2)
Copy OK

Track 3

Filename M:\!Ripped by Andy aka yetiisyou\Soul Hunter - Your Soul Is Mine [ACA 9611-8] [1996]\03. Soul Hunter - Stiffy (Sussex Mix).wav

Pre-gap length 0:00:01.73

Peak level 94.9 %
Extraction speed 4.3 X
Track quality 99.9 %
Test CRC 841775F0
Copy CRC 841775F0
Accurately ripped (confidence 1) [AD90F6F9] (AR v2)
Copy OK

Track 4

Filename M:\!Ripped by Andy aka yetiisyou\Soul Hunter - Your Soul Is Mine [ACA 9611-8] [1996]\04. Soul Hunter - Fears With Tears.wav

Pre-gap length 0:00:01.73

Peak level 94.9 %
Extraction speed 5.3 X
Track quality 100.0 %
Test CRC 55B6287F
Copy CRC 55B6287F
Accurately ripped (confidence 1) [ECD2AF1B] (AR v2)
Copy OK

All tracks accurately ripped

No errors occurred

End of status report

---- CUETools DB Plugin V2.1.6

[CTDB TOCID: byDxL9ggpPVEthGSWeMlySpTxEw-] found
Submit result: byDxL9ggpPVEthGSWeMlySpTxEw- has been confirmed
Track | CTDB Status
1 | (1/1) Accurately ripped
2 | (1/1) Accurately ripped
3 | (1/1) Accurately ripped
4 | (1/1) Accurately ripped

==== Log checksum 7636172FC23C88546A16ED3B54FE9E35CE37626D346BD350AD609B4BCBA1F510 ====

 
REM GENRE Trance
REM DATE 1996
REM DISCID 2F060904
REM COMMENT "ExactAudioCopy v1.6"
PERFORMER "Soul Hunter"
TITLE "Your Soul Is Mine"
REM COMPOSER ""
FILE "01. Soul Hunter - Your Soul Is Mine (Radio Edit).wav" WAVE
TRACK 01 AUDIO
TITLE "Your Soul Is Mine (Radio Edit)"
PERFORMER "Soul Hunter"
REM COMPOSER ""
INDEX 01 00:00:00
TRACK 02 AUDIO
TITLE "Your Soul Is Mine"
PERFORMER "Soul Hunter"
REM COMPOSER ""
INDEX 00 04:05:37
FILE "02. Soul Hunter - Your Soul Is Mine.wav" WAVE
INDEX 01 00:00:00
TRACK 03 AUDIO
TITLE "Stiffy (Sussex Mix)"
PERFORMER "Soul Hunter"
REM COMPOSER ""
INDEX 00 08:07:37
FILE "03. Soul Hunter - Stiffy (Sussex Mix).wav" WAVE
INDEX 01 00:00:00
TRACK 04 AUDIO
TITLE "Fears With Tears"
PERFORMER "Soul Hunter"
REM COMPOSER ""
INDEX 00 07:03:70
FILE "04. Soul Hunter - Fears With Tears.wav" WAVE
INDEX 01 00:00:00

Этот торрент недоступен для скачивания без регистрации, однако доступен по публичной magnet-ссылке (источники с публичных трекеров). Перед использованием ссылки прочтите, пожалуйста Пользовательское соглашение, а также как можно дольше оставайтесь на раздаче! Для того, чтобы скачать сам торрент-файл (который видит больше источников), а также для того, чтобы поблагодарить релизера, вам необходимо зарегистрироваться. Если регистрироваться лень - вы можете также попробовать скачать релиз по нашим партнерским ссылкам ниже. Кроме того, зарегистрированным пользователям не показывается всплывающая реклама при скачивании.

[underver.se].t224653.torrent
Трекер: Зарегистрирован   [ 15.10.2021 07:13 ]  
Статус: проверено (by Renesans at 15.10.2021 07:13)
Поблагодарили: пока никто не поблагодарил...
Тип торрента: публичный - доступные источники с открытых трекеров: 
Размер: 195 MB (занимает 0.04 DVDR, для записи нужно 1 болванка DVDR/RW)
 
 

Яндекс.Метрика powered by Sphinx


В Н И М А Н И Е
Сайт не распространяет и не хранит электронные версии произведений, а лишь бесплатно и без коммерческой выгоды (не требуя взамен платы,
SMS и т.д.) предоставляет доступ к создаваемому пользователями каталогу ссылок на торрент-файлы, которые содержат только списки хеш-сумм.
Убедительная просьба с жалобами обращаться напрямую к пользователю, разместившему торрент файл.

Вверх