Loading...
Error

(House, Club House, Deep House) VA - House Masters Serises: 31 releases (Frankie Knuckles, Louie Vega, ATFC & David Penn, DJ Gregory & Julien Jabre, Sandy Rivera, Kenny Dope, Derrick Carter...) [WEB+CD] (2008-2020) [FLAC (tracks), lossless]

Статистика раздачи
Размер:  38.42 GB   |    Зарегистрирован:  11 месяцев   |    Скачан:  4 раза

Полного источника не было: 14 дней

Сидов:  0  |  0 KB/s  ]   Личеров:  0  |  0 KB/s  ]

* - сиды/пиры с внешних источников

   
 
Автор Сообщение

Renesans Пол:Муж

15-Окт-2021 07:17

[font=mono1]House Masters[/color]

Жанр: House, Club House, Deep House
Носитель: WEB
Год издания: 2008-2020
Издатель (лейбл): Defected

Аудиокодек: FLAC (*.flac)
Тип рипа: tracks
Битрейт аудио: lossless
Продолжительность: 04:00:20:41
Источник (релизер): what.cd \ red \ rto
Наличие сканов в содержимом раздачи: нет
[font="Tahoma"]

Продолжительность: 02:15:10

CD 1

01. Axwell & Bob Sinclar ft. Ron Carroll - What A Wonderful World (Club Mix) (7:36)
02. Bob Sinclar ft. Steve Edwards - World, Hold On (Children Of The Sky) (Original) (6:35)
03. Bob Sinclar ft. Gary Nesta Pine - Love Generation (Club Mix) (8:54)
04. Bob Sinclar ft. Dollarman & Big Ali - Rock This Remix (5:20)
05. Bob Sinclar - I Feel For You (Original Club Mix) (6:07)
06. Bob Sinclar - The Beat Goes On (Mousse T Remix) (8:28)
07. Bob Sinclar ft. Steve Edwards - Together (Atfc's Haunted House Edit) (6:27)
08. Bob Sinclar - Kiss My Eyes (Antoine Clamaran Remix) (6:34)
09. Bob Sinclar - Give A Lil Love (Erik Kupper Remix) (10:57)
10. Bob Sinclar - Everybody Movin' (Eddie Thoneick & Kurd Maverick Remix) (7:07)

CD 2

01. Salomé Da Bahia - Outro Lugar (Original) (5:17)
02. Africanism - Tourment D'amour (Original) (5:26)
03. Bob Sinclar - My Only Love (Original) (4:52)
04. Bob Sinclar - The Ghetto (7:52)
05. Bob Sinclar - Save Our Soul (Brian Tappert Re Edit) (6:51)
06. Blaze - Do You Remember House (Bob Sinclar Remix) (5:46)
07. Bob Sinclar ft. Gene Van Buren - Freedom (Knee Deep Remix) (6:29)
08. Bob Sinclar - Champs Elysees Theme (Jamie Lewis Remix) (6:36)
09. Bob Sinclar - Amora Amor (Original) (5:28)
10. Bob Sinclar ft. Chezere Vs. Ken Norris - Life (Original) (6:27)
X Lossless Decoder version 20120120 (139.0) 

XLD extraction logfile from 2012-02-20 20:51:59 +0300

Различные исполнители / Bob Sinclar - House Masters [Disc 1]

Used drive : HL-DT-ST DVD-RW GH41N (revision PQ06)

Ripper mode : CDParanoia III 10.2
Disable audio cache : OK for the drive with a cache less than 2750KiB
Make use of C2 pointers : NO
Read offset correction : 667
Max retry count : 100
Gap status : Analyzed, Appended

TOC of the extracted CD
Track | Start | Length | Start sector | End sector
---------------------------------------------------------
1 | 00:00:00 | 07:36:15 | 0 | 34214
2 | 07:36:15 | 06:35:09 | 34215 | 63848
3 | 14:11:24 | 08:54:37 | 63849 | 103935
4 | 23:05:61 | 05:20:29 | 103936 | 127964
5 | 28:26:15 | 06:06:69 | 127965 | 155483
6 | 34:33:09 | 08:28:03 | 155484 | 193586
7 | 43:01:12 | 06:26:38 | 193587 | 222574
8 | 49:27:50 | 06:33:62 | 222575 | 252111
9 | 56:01:37 | 10:57:30 | 252112 | 301416
10 | 66:58:67 | 07:06:66 | 301417 | 333432

AccurateRip Summary
Track 01 : OK (AR2, confidence 2)
Track 02 : OK (confidence 10)
Track 03 : OK (confidence 10)
Track 04 : OK (confidence 10)
Track 05 : OK (AR2, confidence 2)
Track 06 : OK (confidence 10)
Track 07 : OK (confidence 10)
Track 08 : OK (confidence 10)
Track 09 : OK (confidence 10)
Track 10 : OK (confidence 10)
->All tracks accurately ripped.

All Tracks
Album gain : -7.65 dB
Peak : 0.924377
Statistics
Read error : 0
Skipped (treated as error) : 0
Edge jitter error (maybe fixed) : 0
Atom jitter error (maybe fixed) : 0
Drift error (maybe fixed) : 0
Dropped bytes error (maybe fixed) : 0
Duplicated bytes error (maybe fixed) : 0

Track 01
Filename : /Users/Sorokinoff/Music/Rembo Music/Bob Sinclar - House Masters [Disc 1]/01 Axwell & Bob Sinclar Feat. Ron Carroll - What A Wonderful World (Club Mix).flac
Pre-gap length : 00:02:00

Track gain : -8.48 dB
Peak : 0.785492
CRC32 hash (test run) : E5C514B8
CRC32 hash : E5C514B8
CRC32 hash (skip zero) : AFC7D268
AccurateRip signature : FB5C7DB4
->Accurately ripped! (AR2, confidence 2)
Statistics
Read error : 0
Skipped (treated as error) : 0
Edge jitter error (maybe fixed) : 0
Atom jitter error (maybe fixed) : 0
Drift error (maybe fixed) : 0
Dropped bytes error (maybe fixed) : 0
Duplicated bytes error (maybe fixed) : 0
Inconsistency in error sectors : 0

Track 02
Filename : /Users/Sorokinoff/Music/Rembo Music/Bob Sinclar - House Masters [Disc 1]/02 Bob Sinclar Feat. Steve Edwards - World, Hold On (Children Of The Sky) (Original).flac
Pre-gap length : 00:01:58

Track gain : -8.46 dB
Peak : 0.851379
CRC32 hash (test run) : ED3E6A90
CRC32 hash : ED3E6A90
CRC32 hash (skip zero) : 3B083A03
AccurateRip signature : 13D21DCC
->Accurately ripped! (confidence 10)
Statistics
Read error : 0
Skipped (treated as error) : 0
Edge jitter error (maybe fixed) : 0
Atom jitter error (maybe fixed) : 0
Drift error (maybe fixed) : 0
Dropped bytes error (maybe fixed) : 0
Duplicated bytes error (maybe fixed) : 0
Inconsistency in error sectors : 0

Track 03
Filename : /Users/Sorokinoff/Music/Rembo Music/Bob Sinclar - House Masters [Disc 1]/03 Bob Sinclar Feat. Gary Nesta Pine - Love Generation (Club Mix).flac
Pre-gap length : 00:01:57

Track gain : -7.65 dB
Peak : 0.785461
CRC32 hash (test run) : 2A4309AB
CRC32 hash : 2A4309AB
CRC32 hash (skip zero) : E50A5989
AccurateRip signature : E4209B3B
->Accurately ripped! (confidence 10)
Statistics
Read error : 0
Skipped (treated as error) : 0
Edge jitter error (maybe fixed) : 0
Atom jitter error (maybe fixed) : 0
Drift error (maybe fixed) : 0
Dropped bytes error (maybe fixed) : 0
Duplicated bytes error (maybe fixed) : 0
Inconsistency in error sectors : 0

Track 04
Filename : /Users/Sorokinoff/Music/Rembo Music/Bob Sinclar - House Masters [Disc 1]/04 Bob Sinclar Feat. Dollarman & Big Ali - Rock This Remix.flac
Pre-gap length : 00:01:58

Track gain : -6.69 dB
Peak : 0.788269
CRC32 hash (test run) : 231E8201
CRC32 hash : 231E8201
CRC32 hash (skip zero) : D8AF7171
AccurateRip signature : 455AEF5E
->Accurately ripped! (confidence 10)
Statistics
Read error : 0
Skipped (treated as error) : 0
Edge jitter error (maybe fixed) : 0
Atom jitter error (maybe fixed) : 0
Drift error (maybe fixed) : 0
Dropped bytes error (maybe fixed) : 0
Duplicated bytes error (maybe fixed) : 0
Inconsistency in error sectors : 0

Track 05
Filename : /Users/Sorokinoff/Music/Rembo Music/Bob Sinclar - House Masters [Disc 1]/05 Bob Sinclar - I Feel For You (Original Club Mix).flac
Pre-gap length : 00:01:58

Track gain : -8.16 dB
Peak : 0.924377
CRC32 hash (test run) : 402E1368
CRC32 hash : 402E1368
CRC32 hash (skip zero) : DB84C4A2
AccurateRip signature : 54246586
->Accurately ripped! (AR2, confidence 2)
Statistics
Read error : 0
Skipped (treated as error) : 0
Edge jitter error (maybe fixed) : 0
Atom jitter error (maybe fixed) : 0
Drift error (maybe fixed) : 0
Dropped bytes error (maybe fixed) : 0
Duplicated bytes error (maybe fixed) : 0
Inconsistency in error sectors : 0

Track 06
Filename : /Users/Sorokinoff/Music/Rembo Music/Bob Sinclar - House Masters [Disc 1]/06 Bob Sinclar - The Beat Goes On (Mousse T Remix).flac
Pre-gap length : 00:01:58

Track gain : -7.45 dB
Peak : 0.857300
CRC32 hash (test run) : F4C75B5D
CRC32 hash : F4C75B5D
CRC32 hash (skip zero) : 72CFB6C6
AccurateRip signature : D9799265
->Accurately ripped! (confidence 10)
Statistics
Read error : 0
Skipped (treated as error) : 0
Edge jitter error (maybe fixed) : 0
Atom jitter error (maybe fixed) : 0
Drift error (maybe fixed) : 0
Dropped bytes error (maybe fixed) : 0
Duplicated bytes error (maybe fixed) : 0
Inconsistency in error sectors : 0

Track 07
Filename : /Users/Sorokinoff/Music/Rembo Music/Bob Sinclar - House Masters [Disc 1]/07 Bob Sinclar Feat. Steve Edwards - Together (ATFC's Haunted House Edit).flac
Pre-gap length : 00:01:58

Track gain : -7.18 dB
Peak : 0.916504
CRC32 hash (test run) : 2A1F1DEF
CRC32 hash : 2A1F1DEF
CRC32 hash (skip zero) : AF2BE8B5
AccurateRip signature : 7196749D
->Accurately ripped! (confidence 10)
Statistics
Read error : 0
Skipped (treated as error) : 0
Edge jitter error (maybe fixed) : 0
Atom jitter error (maybe fixed) : 0
Drift error (maybe fixed) : 0
Dropped bytes error (maybe fixed) : 0
Duplicated bytes error (maybe fixed) : 0
Inconsistency in error sectors : 0

Track 08
Filename : /Users/Sorokinoff/Music/Rembo Music/Bob Sinclar - House Masters [Disc 1]/08 Bob Sinclar - Kiss My Eyes (Antoine Clamaran Remix).flac
Pre-gap length : 00:01:58

Track gain : -7.58 dB
Peak : 0.874115
CRC32 hash (test run) : 6CCBE9EB
CRC32 hash : 6CCBE9EB
CRC32 hash (skip zero) : 6C0F3B6A
AccurateRip signature : 3AD67C4A
->Accurately ripped! (confidence 10)
Statistics
Read error : 0
Skipped (treated as error) : 0
Edge jitter error (maybe fixed) : 0
Atom jitter error (maybe fixed) : 0
Drift error (maybe fixed) : 0
Dropped bytes error (maybe fixed) : 0
Duplicated bytes error (maybe fixed) : 0
Inconsistency in error sectors : 0

Track 09
Filename : /Users/Sorokinoff/Music/Rembo Music/Bob Sinclar - House Masters [Disc 1]/09 Bob Sinclar - Give A Lil Love (Erik Kupper Remix).flac
Pre-gap length : 00:01:58

Track gain : -6.53 dB
Peak : 0.861267
CRC32 hash (test run) : D2E029AB
CRC32 hash : D2E029AB
CRC32 hash (skip zero) : A5844F94
AccurateRip signature : B9C9BD1A
->Accurately ripped! (confidence 10)
Statistics
Read error : 0
Skipped (treated as error) : 0
Edge jitter error (maybe fixed) : 0
Atom jitter error (maybe fixed) : 0
Drift error (maybe fixed) : 0
Dropped bytes error (maybe fixed) : 0
Duplicated bytes error (maybe fixed) : 0
Inconsistency in error sectors : 0

Track 10
Filename : /Users/Sorokinoff/Music/Rembo Music/Bob Sinclar - House Masters [Disc 1]/10 Bob Sinclar - Everybody Movin' (Eddie Thoneick & Kurd Maverick Remix).flac
Pre-gap length : 00:01:58

Track gain : -6.05 dB
Peak : 0.834381
CRC32 hash (test run) : 0CE13351
CRC32 hash : 0CE13351
CRC32 hash (skip zero) : 8C15A686
AccurateRip signature : CAD4EE9F
->Accurately ripped! (confidence 10)
Statistics
Read error : 0
Skipped (treated as error) : 0
Edge jitter error (maybe fixed) : 0
Atom jitter error (maybe fixed) : 0
Drift error (maybe fixed) : 0
Dropped bytes error (maybe fixed) : 0
Duplicated bytes error (maybe fixed) : 0
Inconsistency in error sectors : 0

No errors occurred

End of status report
TITLE "Bob Sinclar - House Masters [Disc 1]" 
REM GENRE "Dance & House"
REM DATE "2008"
REM DISCNUMBER 1
REM TOTALDISCS 2
REM DISCID 95115D0A
FILE "01 Axwell & Bob Sinclar Feat. Ron Carroll - What A Wonderful World (Club Mix).wav" WAVE
TRACK 01 AUDIO
TITLE "What A Wonderful World (Club Mix)"
PERFORMER "Axwell & Bob Sinclar Feat. Ron Carroll"
ISRC FR4E40802690
INDEX 01 00:00:00
TRACK 02 AUDIO
TITLE "World, Hold On (Children Of The Sky) (Original)"
PERFORMER "Bob Sinclar Feat. Steve Edwards"
ISRC GBCPZ0601487
INDEX 00 07:34:32
FILE "02 Bob Sinclar Feat. Steve Edwards - World, Hold On (Children Of The Sky) (Original).wav" WAVE
INDEX 01 00:00:00
TRACK 03 AUDIO
TITLE "Love Generation (Club Mix)"
PERFORMER "Bob Sinclar Feat. Gary Nesta Pine"
ISRC GBCPZ0501323
INDEX 00 06:33:27
FILE "03 Bob Sinclar Feat. Gary Nesta Pine - Love Generation (Club Mix).wav" WAVE
INDEX 01 00:00:00
TRACK 04 AUDIO
TITLE "Rock This Remix"
PERFORMER "Bob Sinclar Feat. Dollarman & Big Ali"
ISRC FR4E40701600
INDEX 00 08:52:54
FILE "04 Bob Sinclar Feat. Dollarman & Big Ali - Rock This Remix.wav" WAVE
INDEX 01 00:00:00
TRACK 05 AUDIO
TITLE "I Feel For You (Original Club Mix)"
PERFORMER "Bob Sinclar"
ISRC FRQ679800057
INDEX 00 05:18:46
FILE "05 Bob Sinclar - I Feel For You (Original Club Mix).wav" WAVE
INDEX 01 00:00:00
TRACK 06 AUDIO
TITLE "The Beat Goes On (Mousse T Remix)"
PERFORMER "Bob Sinclar"
ISRC FR4E40701670
INDEX 00 06:05:11
FILE "06 Bob Sinclar - The Beat Goes On (Mousse T Remix).wav" WAVE
INDEX 01 00:00:00
TRACK 07 AUDIO
TITLE "Together (ATFC's Haunted House Edit)"
PERFORMER "Bob Sinclar Feat. Steve Edwards"
ISRC GBCPZ0802531
INDEX 00 08:26:20
FILE "07 Bob Sinclar Feat. Steve Edwards - Together (ATFC's Haunted House Edit).wav" WAVE
INDEX 01 00:00:00
TRACK 08 AUDIO
TITLE "Kiss My Eyes (Antoine Clamaran Remix)"
PERFORMER "Bob Sinclar"
ISRC FRQ670300259
INDEX 00 06:24:55
FILE "08 Bob Sinclar - Kiss My Eyes (Antoine Clamaran Remix).wav" WAVE
INDEX 01 00:00:00
TRACK 09 AUDIO
TITLE "Give A Lil Love (Erik Kupper Remix)"
PERFORMER "Bob Sinclar"
ISRC FR4E40701710
INDEX 00 06:32:04
FILE "09 Bob Sinclar - Give A Lil Love (Erik Kupper Remix).wav" WAVE
INDEX 01 00:00:00
TRACK 10 AUDIO
TITLE "Everybody Movin' (Eddie Thoneick & Kurd Maverick Remix)"
PERFORMER "Bob Sinclar"
ISRC GBCPZ0701925
INDEX 00 10:55:47
FILE "10 Bob Sinclar - Everybody Movin' (Eddie Thoneick & Kurd Maverick Remix).wav" WAVE
INDEX 01 00:00:00
X Lossless Decoder version 20120120 (139.0) 

XLD extraction logfile from 2012-02-21 22:09:48 +0300

Различные исполнители / Bob Sinclar - House Masters [Disc 2]

Used drive : HL-DT-ST DVD-RW GH41N (revision PQ06)

Ripper mode : CDParanoia III 10.2
Disable audio cache : OK for the drive with a cache less than 2750KiB
Make use of C2 pointers : NO
Read offset correction : 667
Max retry count : 100
Gap status : Analyzed, Appended

TOC of the extracted CD
Track | Start | Length | Start sector | End sector
---------------------------------------------------------
1 | 00:00:00 | 05:16:56 | 0 | 23755
2 | 05:16:56 | 05:26:02 | 23756 | 48207
3 | 10:42:58 | 04:51:52 | 48208 | 70084
4 | 15:34:35 | 07:52:12 | 70085 | 105496
5 | 23:26:47 | 06:50:69 | 105497 | 136315
6 | 30:17:41 | 05:46:29 | 136316 | 162294
7 | 36:03:70 | 06:28:72 | 162295 | 191466
8 | 42:32:67 | 06:36:36 | 191467 | 221202
9 | 49:09:28 | 05:27:63 | 221203 | 245790
10 | 54:37:16 | 06:27:09 | 245791 | 274824

AccurateRip Summary
Track 01 : OK (confidence 9)
Track 02 : OK (confidence 9)
Track 03 : OK (confidence 9)
Track 04 : OK (confidence 9)
Track 05 : OK (confidence 9)
Track 06 : OK (confidence 9)
Track 07 : OK (confidence 9)
Track 08 : OK (confidence 9)
Track 09 : OK (confidence 9)
Track 10 : OK (confidence 9)
->All tracks accurately ripped.

All Tracks
Album gain : -7.82 dB
Peak : 0.988831
Statistics
Read error : 0
Skipped (treated as error) : 0
Edge jitter error (maybe fixed) : 0
Atom jitter error (maybe fixed) : 0
Drift error (maybe fixed) : 0
Dropped bytes error (maybe fixed) : 0
Duplicated bytes error (maybe fixed) : 0

Track 01
Filename : /Users/Sorokinoff/Music/Rembo Music/Bob Sinclar - House Masters [Disc 2]/01 Salomé Da Bahia - Outro Lugar (Original).flac
Pre-gap length : 00:02:00

Track gain : -8.29 dB
Peak : 0.776489
CRC32 hash (test run) : 002D6746
CRC32 hash : 002D6746
CRC32 hash (skip zero) : 4B5E84E7
AccurateRip signature : E6109EF8
->Accurately ripped! (confidence 9)
Statistics
Read error : 0
Skipped (treated as error) : 0
Edge jitter error (maybe fixed) : 0
Atom jitter error (maybe fixed) : 0
Drift error (maybe fixed) : 0
Dropped bytes error (maybe fixed) : 0
Duplicated bytes error (maybe fixed) : 0
Inconsistency in error sectors : 0

Track 02
Filename : /Users/Sorokinoff/Music/Rembo Music/Bob Sinclar - House Masters [Disc 2]/02 Africanism - Tourment D'Amour (Original).flac
Pre-gap length : 00:01:58

Track gain : -7.62 dB
Peak : 0.988556
CRC32 hash (test run) : 37E963AF
CRC32 hash : 37E963AF
CRC32 hash (skip zero) : 24D009F9
AccurateRip signature : 476D098B
->Accurately ripped! (confidence 9)
Statistics
Read error : 0
Skipped (treated as error) : 0
Edge jitter error (maybe fixed) : 0
Atom jitter error (maybe fixed) : 0
Drift error (maybe fixed) : 0
Dropped bytes error (maybe fixed) : 0
Duplicated bytes error (maybe fixed) : 0
Inconsistency in error sectors : 0

Track 03
Filename : /Users/Sorokinoff/Music/Rembo Music/Bob Sinclar - House Masters [Disc 2]/03 Bob Sinclar - My Only Love (Original).flac
Pre-gap length : 00:01:58

Track gain : -8.51 dB
Peak : 0.828827
CRC32 hash (test run) : 9DB6FBB5
CRC32 hash : 9DB6FBB5
CRC32 hash (skip zero) : 76C174C2
AccurateRip signature : C2178B04
->Accurately ripped! (confidence 9)
Statistics
Read error : 0
Skipped (treated as error) : 0
Edge jitter error (maybe fixed) : 0
Atom jitter error (maybe fixed) : 0
Drift error (maybe fixed) : 0
Dropped bytes error (maybe fixed) : 0
Duplicated bytes error (maybe fixed) : 0
Inconsistency in error sectors : 0

Track 04
Filename : /Users/Sorokinoff/Music/Rembo Music/Bob Sinclar - House Masters [Disc 2]/04 Bob Sinclar - The Ghetto.flac
Pre-gap length : 00:01:58

Track gain : -8.23 dB
Peak : 0.988739
CRC32 hash (test run) : 478D5BD7
CRC32 hash : 478D5BD7
CRC32 hash (skip zero) : FFFECB58
AccurateRip signature : 7506B5EF
->Accurately ripped! (confidence 9)
Statistics
Read error : 0
Skipped (treated as error) : 0
Edge jitter error (maybe fixed) : 0
Atom jitter error (maybe fixed) : 0
Drift error (maybe fixed) : 0
Dropped bytes error (maybe fixed) : 0
Duplicated bytes error (maybe fixed) : 0
Inconsistency in error sectors : 0

Track 05
Filename : /Users/Sorokinoff/Music/Rembo Music/Bob Sinclar - House Masters [Disc 2]/05 Bob Sinclar - Save Our Soul (Brian Tappert Re Edit).flac
Pre-gap length : 00:01:58

Track gain : -6.58 dB
Peak : 0.988770
CRC32 hash (test run) : 68908F96
CRC32 hash : 68908F96
CRC32 hash (skip zero) : 26F76BA3
AccurateRip signature : D5F37D4D
->Accurately ripped! (confidence 9)
Statistics
Read error : 0
Skipped (treated as error) : 0
Edge jitter error (maybe fixed) : 0
Atom jitter error (maybe fixed) : 0
Drift error (maybe fixed) : 0
Dropped bytes error (maybe fixed) : 0
Duplicated bytes error (maybe fixed) : 0
Inconsistency in error sectors : 0

Track 06
Filename : /Users/Sorokinoff/Music/Rembo Music/Bob Sinclar - House Masters [Disc 2]/06 Blaze - Do You Remember House (Bob Sinclar Remix).flac
Pre-gap length : 00:01:58

Track gain : -7.29 dB
Peak : 0.988831
CRC32 hash (test run) : 579C9CD9
CRC32 hash : 579C9CD9
CRC32 hash (skip zero) : EC870A2C
AccurateRip signature : B276F1CB
->Accurately ripped! (confidence 9)
Statistics
Read error : 0
Skipped (treated as error) : 0
Edge jitter error (maybe fixed) : 0
Atom jitter error (maybe fixed) : 0
Drift error (maybe fixed) : 0
Dropped bytes error (maybe fixed) : 0
Duplicated bytes error (maybe fixed) : 0
Inconsistency in error sectors : 0

Track 07
Filename : /Users/Sorokinoff/Music/Rembo Music/Bob Sinclar - House Masters [Disc 2]/07 Bob Sinclar Feat. Gene Van Buren - Freedom (Knee Deep Remix).flac
Pre-gap length : 00:01:57

Track gain : -8.37 dB
Peak : 0.794342
CRC32 hash (test run) : 307A6491
CRC32 hash : 307A6491
CRC32 hash (skip zero) : 0F856AFB
AccurateRip signature : 8CFF0466
->Accurately ripped! (confidence 9)
Statistics
Read error : 0
Skipped (treated as error) : 0
Edge jitter error (maybe fixed) : 0
Atom jitter error (maybe fixed) : 0
Drift error (maybe fixed) : 0
Dropped bytes error (maybe fixed) : 0
Duplicated bytes error (maybe fixed) : 0
Inconsistency in error sectors : 0

Track 08
Filename : /Users/Sorokinoff/Music/Rembo Music/Bob Sinclar - House Masters [Disc 2]/08 Bob Sinclar - Champs Elysees Theme (Jamie Lewis Remix).flac
Pre-gap length : 00:01:58

Track gain : -6.94 dB
Peak : 0.966309
CRC32 hash (test run) : F2AC7798
CRC32 hash : F2AC7798
CRC32 hash (skip zero) : 743F0843
AccurateRip signature : 0AC2D2BA
->Accurately ripped! (confidence 9)
Statistics
Read error : 0
Skipped (treated as error) : 0
Edge jitter error (maybe fixed) : 0
Atom jitter error (maybe fixed) : 0
Drift error (maybe fixed) : 0
Dropped bytes error (maybe fixed) : 0
Duplicated bytes error (maybe fixed) : 0
Inconsistency in error sectors : 0

Track 09
Filename : /Users/Sorokinoff/Music/Rembo Music/Bob Sinclar - House Masters [Disc 2]/09 Bob Sinclar - Amora Amor (Original).flac
Pre-gap length : 00:01:58

Track gain : -7.24 dB
Peak : 0.871063
CRC32 hash (test run) : 11CB5020
CRC32 hash : 11CB5020
CRC32 hash (skip zero) : 2419589B
AccurateRip signature : 8C81D568
->Accurately ripped! (confidence 9)
Statistics
Read error : 0
Skipped (treated as error) : 0
Edge jitter error (maybe fixed) : 0
Atom jitter error (maybe fixed) : 0
Drift error (maybe fixed) : 0
Dropped bytes error (maybe fixed) : 0
Duplicated bytes error (maybe fixed) : 0
Inconsistency in error sectors : 0

Track 10
Filename : /Users/Sorokinoff/Music/Rembo Music/Bob Sinclar - House Masters [Disc 2]/10 Bob Sinclar Feat. Chezere Vs. Ken Norris - Life (Original).flac
Pre-gap length : 00:01:58

Track gain : -8.28 dB
Peak : 0.861023
CRC32 hash (test run) : E631E6FB
CRC32 hash : E631E6FB
CRC32 hash (skip zero) : 872DC195
AccurateRip signature : 8269FC35
->Accurately ripped! (confidence 9)
Statistics
Read error : 0
Skipped (treated as error) : 0
Edge jitter error (maybe fixed) : 0
Atom jitter error (maybe fixed) : 0
Drift error (maybe fixed) : 0
Dropped bytes error (maybe fixed) : 0
Duplicated bytes error (maybe fixed) : 0
Inconsistency in error sectors : 0

No errors occurred

End of status report
TITLE "Bob Sinclar - House Masters [Disc 2]" 
REM GENRE "Dance & House"
REM DATE "2008"
REM DISCNUMBER 2
REM TOTALDISCS 2
REM DISCID 920E500A
FILE "01 Salomé Da Bahia - Outro Lugar (Original).wav" WAVE
TRACK 01 AUDIO
TITLE "Outro Lugar (Original)"
PERFORMER "Salomé Da Bahia"
ISRC FRQ380400214
INDEX 01 00:00:00
TRACK 02 AUDIO
TITLE "Tourment D'Amour (Original)"
PERFORMER "Africanism"
ISRC GBCPZ0803135
INDEX 00 05:14:73
FILE "02 Africanism - Tourment D'Amour (Original).wav" WAVE
INDEX 01 00:00:00
TRACK 03 AUDIO
TITLE "My Only Love (Original)"
PERFORMER "Bob Sinclar"
ISRC FRQ679800037
INDEX 00 05:24:19
FILE "03 Bob Sinclar - My Only Love (Original).wav" WAVE
INDEX 01 00:00:00
TRACK 04 AUDIO
TITLE "The Ghetto"
PERFORMER "Bob Sinclar"
ISRC FR4E40500450
INDEX 00 04:49:69
FILE "04 Bob Sinclar - The Ghetto.wav" WAVE
INDEX 01 00:00:00
TRACK 05 AUDIO
TITLE "Save Our Soul (Brian Tappert Re Edit)"
PERFORMER "Bob Sinclar"
ISRC GBCPZ0803097
INDEX 00 07:50:29
FILE "05 Bob Sinclar - Save Our Soul (Brian Tappert Re Edit).wav" WAVE
INDEX 01 00:00:00
TRACK 06 AUDIO
TITLE "Do You Remember House (Bob Sinclar Remix)"
PERFORMER "Blaze"
ISRC GBBGH0235106
INDEX 00 06:49:11
FILE "06 Blaze - Do You Remember House (Bob Sinclar Remix).wav" WAVE
INDEX 01 00:00:00
TRACK 07 AUDIO
TITLE "Freedom (Knee Deep Remix)"
PERFORMER "Bob Sinclar Feat. Gene Van Buren"
ISRC GBCPZ0803098
INDEX 00 05:44:47
FILE "07 Bob Sinclar Feat. Gene Van Buren - Freedom (Knee Deep Remix).wav" WAVE
INDEX 01 00:00:00
TRACK 08 AUDIO
TITLE "Champs Elysees Theme (Jamie Lewis Remix)"
PERFORMER "Bob Sinclar"
ISRC GBCPZ0803099
INDEX 00 06:27:14
FILE "08 Bob Sinclar - Champs Elysees Theme (Jamie Lewis Remix).wav" WAVE
INDEX 01 00:00:00
TRACK 09 AUDIO
TITLE "Amora Amor (Original)"
PERFORMER "Bob Sinclar"
ISRC GBCPZ0601492
INDEX 00 06:34:53
FILE "09 Bob Sinclar - Amora Amor (Original).wav" WAVE
INDEX 01 00:00:00
TRACK 10 AUDIO
TITLE "Life (Original)"
PERFORMER "Bob Sinclar Feat. Chezere Vs. Ken Norris"
ISRC FRQ679800083
INDEX 00 05:26:05
FILE "10 Bob Sinclar Feat. Chezere Vs. Ken Norris - Life (Original).wav" WAVE
INDEX 01 00:00:00
[font="Tahoma"]

Продолжительность: 02:36:44

CD 1

01. Louie Vega And Jay 'sinister' Sealee ft. Julie Mcknight - Diamond Life (Dance Ritual Mix) (8:52)
02. Masters At Work - To Be In Love (Maw Club Edit) (5:59)
03. Kings Of Tomorrow - Finally (Dance Ritual Mix) (8:05)
04. Barbara Tucker - Beautiful People (Original Club Mix) (9:28)
05. Hardrive - Deep Inside (6:32)
06. River Ocean ft. India - Love & Happiness (Yemeya Y Ochun) (12' Inch Club Mix) (9:51)
07. Barbara Tucker - I Get Lifted (The Underground Network Mix) (7:13)
08. Black Magic - Dance (Do That Thang) (Maw Mix) (7:54)
09. Hardrive 2000 ft. Lynae - Never Forget (When You Touch Me) (Dance Ritual Mix) (9:21)
10. Mr. V ft. Miss Patty - Da Bump (Masters At Work Remix) (6:03)

CD 2

01. Ultra Naté - Divine Love (9:02)
02. Lil' Mo' Yin Yang - Reach ('little' 'more' Mix) (7:52)
03. Dj Gregory - Elle (Eol Ritual) (8:35)
04. Club Ultimate - Carnival '95' (Pride) (Original Pride Mix) (7:27)
05. Sun, Sun, Sun - Curious (Vocal Mix) (7:20)
06. Sole Fusion - Bass Tone (Underground Network Mix) (7:20)
07. Erick 'more' Morillo - Dancin (A 'little' - 'more' Vocal Mix) (6:34)
08. Lou 2 - Freaky (The Bar Heads Mix) (9:50)
09. Hardrive - No Cure (6:11)
10. Sole Fusion - We Can Make It (Underground Network Mix) (7:13)
Exact Audio Copy V1.3 from 2. September 2016 

EAC extraction logfile from 27. February 2019, 19:39

Various / House Masters - Louie Vega (CD1)

Used drive : ATAPI iHAS124 F Adapter: 1 ID: 0

Read mode : Secure
Utilize accurate stream : Yes
Defeat audio cache : Yes
Make use of C2 pointers : No

Read offset correction : 6
Overread into Lead-In and Lead-Out : No
Fill up missing offset samples with silence : Yes
Delete leading and trailing silent blocks : No
Null samples used in CRC calculations : Yes
Used interface : Native Win32 interface for Win NT & 2000
Gap handling : Appended to previous track

Used output format : User Defined Encoder
Selected bitrate : 1024 kBit/s
Quality : High
Add ID3 tag : No
Command line compressor : Q:\Exact Audio Copy\FLAC\FLAC.EXE
Additional command line options : -8 -V -T "ARTIST=%artist%" -T "TITLE=%title%" -T "ALBUM=%albumtitle%" -T "DATE=%year%" -T "TRACKNUMBER=%tracknr%" -T "GENRE=%genre%" -T "PERFORMER=%albuminterpret%" -T "COMPOSER=%composer%" %haslyrics%--tag-from-file=LYRICS="%lyricsfile%"%haslyrics% -T "ALBUMARTIST=%albumartist%" -T "DISCNUMBER=%cdnumber%" -T "TOTALDISCS=%totalcds%" -T "TOTALTRACKS=%numtracks%" -T "COMMENT=%comment%" %source% -o %dest%

TOC of the extracted CD

Track | Start | Length | Start sector | End sector
---------------------------------------------------------
1 | 0:00.00 | 8:52.25 | 0 | 39924
2 | 8:52.25 | 5:59.25 | 39925 | 66874
3 | 14:51.50 | 8:05.23 | 66875 | 103272
4 | 22:56.73 | 9:28.01 | 103273 | 145873
5 | 32:24.74 | 6:32.13 | 145874 | 175286
6 | 38:57.12 | 9:50.58 | 175287 | 219594
7 | 48:47.70 | 7:13.28 | 219595 | 252097
8 | 56:01.23 | 7:54.02 | 252098 | 287649
9 | 63:55.25 | 9:20.57 | 287650 | 329706
10 | 73:16.07 | 6:03.27 | 329707 | 356958

Track 1

Filename Q:\MUSIC - FLAC\°~_MUSICS\--- CD RIPS ---\01. Louie Vega And Jay 'Sinister' Sealee feat. Julie McKnight - Diamond Life (Dance Ritual Mix).wav

Pre-gap length 0:00:02.00

Peak level 98.8 %
Extraction speed 6.4 X
Track quality 100.0 %
Test CRC BF4BB69D
Copy CRC BF4BB69D
Accurately ripped (confidence 3) [6D2F4EEA] (AR v2)
Copy OK

Track 2

Filename Q:\MUSIC - FLAC\°~_MUSICS\--- CD RIPS ---\02. Masters At Work - To Be In Love (MAW Club Edit).wav

Pre-gap length 0:00:01.58

Peak level 98.8 %
Extraction speed 7.1 X
Track quality 100.0 %
Test CRC 123C2658
Copy CRC 123C2658
Accurately ripped (confidence 3) [CAF4B6D0] (AR v2)
Copy OK

Track 3

Filename Q:\MUSIC - FLAC\°~_MUSICS\--- CD RIPS ---\03. Kings Of Tomorrow - Finally (Dance Ritual Mix).wav

Pre-gap length 0:00:01.58

Peak level 98.8 %
Extraction speed 8.2 X
Track quality 100.0 %
Test CRC 97FD39E5
Copy CRC 97FD39E5
Accurately ripped (confidence 3) [582544DA] (AR v2)
Copy OK

Track 4

Filename Q:\MUSIC - FLAC\°~_MUSICS\--- CD RIPS ---\04. Barbara Tucker - Beautiful People (Original Club Mix).wav

Pre-gap length 0:00:01.58

Peak level 96.6 %
Extraction speed 8.2 X
Track quality 99.9 %
Test CRC 98849211
Copy CRC 98849211
Accurately ripped (confidence 3) [5DB11FDD] (AR v2)
Copy OK

Track 5

Filename Q:\MUSIC - FLAC\°~_MUSICS\--- CD RIPS ---\05. Hardrive - Deep Inside.wav

Pre-gap length 0:00:01.59

Peak level 98.8 %
Extraction speed 9.4 X
Track quality 100.0 %
Test CRC 2D34BF84
Copy CRC 2D34BF84
Accurately ripped (confidence 3) [07B3C184] (AR v2)
Copy OK

Track 6

Filename Q:\MUSIC - FLAC\°~_MUSICS\--- CD RIPS ---\06. River Ocean feat. India - Love & Happiness (Yemeya Y Ochun) (12'' Inch Club Mix).wav

Pre-gap length 0:00:01.59

Peak level 98.8 %
Extraction speed 10.4 X
Track quality 100.0 %
Test CRC 08BDE748
Copy CRC 08BDE748
Accurately ripped (confidence 3) [EB044ECA] (AR v2)
Copy OK

Track 7

Filename Q:\MUSIC - FLAC\°~_MUSICS\--- CD RIPS ---\07. Barbara Tucker - I Get Lifted (The Underground Network Mix).wav

Pre-gap length 0:00:01.58

Peak level 98.8 %
Extraction speed 10.8 X
Track quality 100.0 %
Test CRC 8EE95359
Copy CRC 8EE95359
Accurately ripped (confidence 3) [DBCEADE5] (AR v2)
Copy OK

Track 8

Filename Q:\MUSIC - FLAC\°~_MUSICS\--- CD RIPS ---\08. Black Magic - Dance (Do That Thang) (MAW Mix).wav

Pre-gap length 0:00:01.57

Peak level 97.6 %
Extraction speed 11.4 X
Track quality 100.0 %
Test CRC D584ABEC
Copy CRC D584ABEC
Accurately ripped (confidence 3) [0E876DAE] (AR v2)
Copy OK

Track 9

Filename Q:\MUSIC - FLAC\°~_MUSICS\--- CD RIPS ---\09. Hardrive 2000 feat. Lynae - Never Forget (When You Touch Me) (Dance Ritual Mix).wav

Pre-gap length 0:00:01.58

Peak level 98.8 %
Extraction speed 11.0 X
Track quality 99.9 %
Test CRC 97C10C77
Copy CRC 97C10C77
Accurately ripped (confidence 3) [1EEF71C0] (AR v2)
Copy OK

Track 10

Filename Q:\MUSIC - FLAC\°~_MUSICS\--- CD RIPS ---\10. Mr. V feat. Miss Patty - Da Bump (Masters At Work Remix).wav

Pre-gap length 0:00:01.59

Peak level 98.8 %
Extraction speed 12.2 X
Track quality 100.0 %
Test CRC 85DFDB2E
Copy CRC 85DFDB2E
Accurately ripped (confidence 2) [ADB2B132] (AR v2)
Copy OK

All tracks accurately ripped

No errors occurred

End of status report

---- CUETools DB Plugin V2.1.6

[CTDB TOCID: pUvruX20DFVqCEjnwcCafqfyZo0-] found
Submit result: pUvruX20DFVqCEjnwcCafqfyZo0- has been confirmed
Track | CTDB Status
1 | (11/11) Accurately ripped
2 | (11/11) Accurately ripped
3 | (11/11) Accurately ripped
4 | (11/11) Accurately ripped
5 | (11/11) Accurately ripped
6 | (11/11) Accurately ripped
7 | (11/11) Accurately ripped
8 | (11/11) Accurately ripped
9 | (11/11) Accurately ripped
10 | (10/11) Accurately ripped

==== Log checksum CDE9A4AB4021C525B6A1E31821F5F4FE9579B4D2583B51DD8812F055BDAAD32D ====
REM GENRE House 
REM DATE 2008
REM DISCID AC12970A
REM COMMENT "ExactAudioCopy v1.3"
PERFORMER "Various"
TITLE "House Masters - Louie Vega (CD1)"
REM COMPOSER ""
FILE "01. Louie Vega And Jay 'Sinister' Sealee feat. Julie McKnight - Diamond Life (Dance Ritual Mix).wav" WAVE
TRACK 01 AUDIO
TITLE "Diamond Life (Dance Ritual Mix)"
PERFORMER "Louie Vega And Jay 'Sinister' Sealee feat. Julie McKnight"
REM COMPOSER ""
INDEX 01 00:00:00
TRACK 02 AUDIO
TITLE "To Be In Love (MAW Club Edit)"
PERFORMER "Masters At Work"
REM COMPOSER ""
INDEX 00 08:50:42
FILE "02. Masters At Work - To Be In Love (MAW Club Edit).wav" WAVE
INDEX 01 00:00:00
TRACK 03 AUDIO
TITLE "Finally (Dance Ritual Mix)"
PERFORMER "Kings Of Tomorrow"
REM COMPOSER ""
INDEX 00 05:57:42
FILE "03. Kings Of Tomorrow - Finally (Dance Ritual Mix).wav" WAVE
INDEX 01 00:00:00
TRACK 04 AUDIO
TITLE "Beautiful People (Original Club Mix)"
PERFORMER "Barbara Tucker"
REM COMPOSER ""
INDEX 00 08:03:40
FILE "04. Barbara Tucker - Beautiful People (Original Club Mix).wav" WAVE
INDEX 01 00:00:00
TRACK 05 AUDIO
TITLE "Deep Inside"
PERFORMER "Hardrive"
REM COMPOSER ""
INDEX 00 09:26:17
FILE "05. Hardrive - Deep Inside.wav" WAVE
INDEX 01 00:00:00
TRACK 06 AUDIO
TITLE "Love & Happiness (Yemeya Y Ochun) (12' Inch Club Mix)"
PERFORMER "River Ocean feat. India"
REM COMPOSER ""
INDEX 00 06:30:29
FILE "06. River Ocean feat. India - Love & Happiness (Yemeya Y Ochun) (12'' Inch Club Mix).wav" WAVE
INDEX 01 00:00:00
TRACK 07 AUDIO
TITLE "I Get Lifted (The Underground Network Mix)"
PERFORMER "Barbara Tucker"
REM COMPOSER ""
INDEX 00 09:49:00
FILE "07. Barbara Tucker - I Get Lifted (The Underground Network Mix).wav" WAVE
INDEX 01 00:00:00
TRACK 08 AUDIO
TITLE "Dance (Do That Thang) (MAW Mix)"
PERFORMER "Black Magic"
REM COMPOSER ""
INDEX 00 07:11:46
FILE "08. Black Magic - Dance (Do That Thang) (MAW Mix).wav" WAVE
INDEX 01 00:00:00
TRACK 09 AUDIO
TITLE "Never Forget (When You Touch Me) (Dance Ritual Mix)"
PERFORMER "Hardrive 2000 feat. Lynae"
REM COMPOSER ""
INDEX 00 07:52:19
FILE "09. Hardrive 2000 feat. Lynae - Never Forget (When You Touch Me) (Dance Ritual Mix).wav" WAVE
INDEX 01 00:00:00
TRACK 10 AUDIO
TITLE "Da Bump (Masters At Work Remix)"
PERFORMER "Mr. V feat. Miss Patty"
REM COMPOSER ""
INDEX 00 09:18:73
FILE "10. Mr. V feat. Miss Patty - Da Bump (Masters At Work Remix).wav" WAVE
INDEX 01 00:00:00
Exact Audio Copy V1.3 from 2. September 2016 

EAC extraction logfile from 27. February 2019, 20:02

Various / House Masters - Louie Vega (CD2)

Used drive : ATAPI iHAS124 F Adapter: 1 ID: 0

Read mode : Secure
Utilize accurate stream : Yes
Defeat audio cache : Yes
Make use of C2 pointers : No

Read offset correction : 6
Overread into Lead-In and Lead-Out : No
Fill up missing offset samples with silence : Yes
Delete leading and trailing silent blocks : No
Null samples used in CRC calculations : Yes
Used interface : Native Win32 interface for Win NT & 2000
Gap handling : Appended to previous track

Used output format : User Defined Encoder
Selected bitrate : 1024 kBit/s
Quality : High
Add ID3 tag : No
Command line compressor : Q:\Exact Audio Copy\FLAC\FLAC.EXE
Additional command line options : -8 -V -T "ARTIST=%artist%" -T "TITLE=%title%" -T "ALBUM=%albumtitle%" -T "DATE=%year%" -T "TRACKNUMBER=%tracknr%" -T "GENRE=%genre%" -T "PERFORMER=%albuminterpret%" -T "COMPOSER=%composer%" %haslyrics%--tag-from-file=LYRICS="%lyricsfile%"%haslyrics% -T "ALBUMARTIST=%albumartist%" -T "DISCNUMBER=%cdnumber%" -T "TOTALDISCS=%totalcds%" -T "TOTALTRACKS=%numtracks%" -T "COMMENT=%comment%" %source% -o %dest%

TOC of the extracted CD

Track | Start | Length | Start sector | End sector
---------------------------------------------------------
1 | 0:00.00 | 9:02.25 | 0 | 40674
2 | 9:02.25 | 7:51.73 | 40675 | 76072
3 | 16:54.23 | 8:35.32 | 76073 | 114729
4 | 25:29.55 | 7:27.07 | 114730 | 148261
5 | 32:56.62 | 7:20.24 | 148262 | 181285
6 | 40:17.11 | 7:19.52 | 181286 | 214262
7 | 47:36.63 | 6:34.33 | 214263 | 243845
8 | 54:11.21 | 9:49.47 | 243846 | 288067
9 | 64:00.68 | 6:10.44 | 288068 | 315861
10 | 70:11.37 | 7:13.06 | 315862 | 348342

Track 1

Filename Q:\MUSIC - FLAC\°~_MUSICS\--- CD RIPS ---\01. Ultra Naté - Divine Love.wav

Pre-gap length 0:00:02.00

Peak level 98.8 %
Extraction speed 6.4 X
Track quality 100.0 %
Test CRC E9F67A9D
Copy CRC E9F67A9D
Accurately ripped (confidence 3) [BCD16C1A] (AR v2)
Copy OK

Track 2

Filename Q:\MUSIC - FLAC\°~_MUSICS\--- CD RIPS ---\02. Lil' Mo' Yin Yang - Reach (''Little'' ''More'' Mix).wav

Pre-gap length 0:00:01.59

Peak level 98.8 %
Extraction speed 7.4 X
Track quality 100.0 %
Test CRC CA2FCA2B
Copy CRC CA2FCA2B
Accurately ripped (confidence 3) [2144C0B3] (AR v2)
Copy OK

Track 3

Filename Q:\MUSIC - FLAC\°~_MUSICS\--- CD RIPS ---\03. DJ Gregory - Elle (EOL Ritual).wav

Pre-gap length 0:00:01.58

Peak level 99.3 %
Extraction speed 8.3 X
Track quality 100.0 %
Test CRC 698A0DD5
Copy CRC 698A0DD5
Accurately ripped (confidence 3) [DC200144] (AR v2)
Copy OK

Track 4

Filename Q:\MUSIC - FLAC\°~_MUSICS\--- CD RIPS ---\04. Club Ultimate - Carnival '95' (Pride) (Original Pride Mix).wav

Pre-gap length 0:00:01.58

Peak level 96.6 %
Extraction speed 9.0 X
Track quality 100.0 %
Test CRC 0428E815
Copy CRC 0428E815
Accurately ripped (confidence 3) [7DA6C0EA] (AR v2)
Copy OK

Track 5

Filename Q:\MUSIC - FLAC\°~_MUSICS\--- CD RIPS ---\05. Sun, Sun, Sun - Curious (Vocal Mix).wav

Pre-gap length 0:00:01.58

Peak level 98.8 %
Extraction speed 9.5 X
Track quality 100.0 %
Test CRC B9EA8CA3
Copy CRC B9EA8CA3
Accurately ripped (confidence 3) [2549FDD9] (AR v2)
Copy OK

Track 6

Filename Q:\MUSIC - FLAC\°~_MUSICS\--- CD RIPS ---\06. Sole Fusion - Bass Tone (Underground Network Mix).wav

Pre-gap length 0:00:01.58

Peak level 97.7 %
Extraction speed 10.2 X
Track quality 100.0 %
Test CRC D75340C1
Copy CRC D75340C1
Accurately ripped (confidence 3) [C5A194D0] (AR v2)
Copy OK

Track 7

Filename Q:\MUSIC - FLAC\°~_MUSICS\--- CD RIPS ---\07. Erick 'More' Morillo - Dancin (A ''Little'' - ''More'' Vocal Mix).wav

Pre-gap length 0:00:01.59

Peak level 97.7 %
Extraction speed 10.6 X
Track quality 100.0 %
Test CRC 7ED02695
Copy CRC 7ED02695
Accurately ripped (confidence 3) [887BDBA6] (AR v2)
Copy OK

Track 8

Filename Q:\MUSIC - FLAC\°~_MUSICS\--- CD RIPS ---\08. Lou 2 - Freaky (The Bar Heads Mix).wav

Pre-gap length 0:00:01.59

Peak level 95.3 %
Extraction speed 10.4 X
Track quality 99.9 %
Test CRC 48CA0043
Copy CRC 48CA0043
Accurately ripped (confidence 3) [60886AFA] (AR v2)
Copy OK

Track 9

Filename Q:\MUSIC - FLAC\°~_MUSICS\--- CD RIPS ---\09. Hardrive - No Cure.wav

Pre-gap length 0:00:01.59

Peak level 95.5 %
Extraction speed 11.5 X
Track quality 100.0 %
Test CRC F6B90B40
Copy CRC F6B90B40
Accurately ripped (confidence 3) [E37117CB] (AR v2)
Copy OK

Track 10

Filename Q:\MUSIC - FLAC\°~_MUSICS\--- CD RIPS ---\10. Sole Fusion - We Can Make It (Underground Network Mix).wav

Pre-gap length 0:00:01.60

Peak level 98.8 %
Extraction speed 12.2 X
Track quality 100.0 %
Test CRC 28A30E75
Copy CRC 28A30E75
Accurately ripped (confidence 3) [7E12F026] (AR v2)
Copy OK

All tracks accurately ripped

No errors occurred

End of status report

---- CUETools DB Plugin V2.1.6

[CTDB TOCID: QAUifyq3ApuvtxXpMhBOnakpG2M-] found
Submit result: QAUifyq3ApuvtxXpMhBOnakpG2M- has been confirmed
Track | CTDB Status
1 | (12/12) Accurately ripped
2 | (12/12) Accurately ripped
3 | (12/12) Accurately ripped
4 | (12/12) Accurately ripped
5 | (12/12) Accurately ripped
6 | (12/12) Accurately ripped
7 | (12/12) Accurately ripped
8 | (12/12) Accurately ripped
9 | (12/12) Accurately ripped
10 | (12/12) Accurately ripped

==== Log checksum 1381F7B80F8B6193816AFEAED2B29B7F4752F72FD328025E237BF0347E846717 ====
REM GENRE House 
REM DATE 2008
REM DISCID 8912240A
REM COMMENT "ExactAudioCopy v1.3"
PERFORMER "Various"
TITLE "House Masters - Louie Vega (CD2)"
REM COMPOSER ""
FILE "01. Ultra Natй - Divine Love.wav" WAVE
TRACK 01 AUDIO
TITLE "Divine Love"
PERFORMER "Ultra Natй"
REM COMPOSER ""
INDEX 01 00:00:00
TRACK 02 AUDIO
TITLE "Reach ('Little' 'More' Mix)"
PERFORMER "Lil' Mo' Yin Yang"
REM COMPOSER ""
INDEX 00 09:00:41
FILE "02. Lil' Mo' Yin Yang - Reach (''Little'' ''More'' Mix).wav" WAVE
INDEX 01 00:00:00
TRACK 03 AUDIO
TITLE "Elle (EOL Ritual)"
PERFORMER "DJ Gregory"
REM COMPOSER ""
INDEX 00 07:50:15
FILE "03. DJ Gregory - Elle (EOL Ritual).wav" WAVE
INDEX 01 00:00:00
TRACK 04 AUDIO
TITLE "Carnival '95' (Pride) (Original Pride Mix)"
PERFORMER "Club Ultimate"
REM COMPOSER ""
INDEX 00 08:33:49
FILE "04. Club Ultimate - Carnival '95' (Pride) (Original Pride Mix).wav" WAVE
INDEX 01 00:00:00
TRACK 05 AUDIO
TITLE "Curious (Vocal Mix)"
PERFORMER "Sun, Sun, Sun"
REM COMPOSER ""
INDEX 00 07:25:24
FILE "05. Sun, Sun, Sun - Curious (Vocal Mix).wav" WAVE
INDEX 01 00:00:00
TRACK 06 AUDIO
TITLE "Bass Tone (Underground Network Mix)"
PERFORMER "Sole Fusion"
REM COMPOSER ""
INDEX 00 07:18:41
FILE "06. Sole Fusion - Bass Tone (Underground Network Mix).wav" WAVE
INDEX 01 00:00:00
TRACK 07 AUDIO
TITLE "Dancin (A 'Little' - 'More' Vocal Mix)"
PERFORMER "Erick 'More' Morillo"
REM COMPOSER ""
INDEX 00 07:17:68
FILE "07. Erick 'More' Morillo - Dancin (A ''Little'' - ''More'' Vocal Mix).wav" WAVE
INDEX 01 00:00:00
TRACK 08 AUDIO
TITLE "Freaky (The Bar Heads Mix)"
PERFORMER "Lou 2"
REM COMPOSER ""
INDEX 00 06:32:49
FILE "08. Lou 2 - Freaky (The Bar Heads Mix).wav" WAVE
INDEX 01 00:00:00
TRACK 09 AUDIO
TITLE "No Cure"
PERFORMER "Hardrive"
REM COMPOSER ""
INDEX 00 09:47:63
FILE "09. Hardrive - No Cure.wav" WAVE
INDEX 01 00:00:00
TRACK 10 AUDIO
TITLE "We Can Make It (Underground Network Mix)"
PERFORMER "Sole Fusion"
REM COMPOSER ""
INDEX 00 06:08:59
FILE "10. Sole Fusion - We Can Make It (Underground Network Mix).wav" WAVE
INDEX 01 00:00:00
[font="Tahoma"]

Продолжительность: 02:32:10

CD 1

01. Atfc Featuring Lisa Millett - Bad Habit (Atfc's Lektrotek Re-Visit) (9:40)
02. ATFC - I Called U (The Conversation) (ATFC's Heated Conversation) (10:31)
03. ATFC - Praise To The JBs (6:28)
04. ATFC Featuring Yasmeen - Tell U Y (New Jack Swing Original) (7:36)
05. ATFC Presents OnePhatDeeva - In And Out Of My Life (ATFC Original Vocal) (6:20)
06. John Dahlbäck & ATFC - Bon Bon (7:43)
07. ATFC Featuring Rae - Giv Me Luv (ATFC's Ocean Trench Mix) (8:44)
08. ATFC Featuring Lisa Millett - Sleep Talk (Junior Jack Club Mix) (6:39)
09. Funkerman - Speed Up (ATFC's 0-60 Extended Mix) (7:37)
10. Sandy Rivera & Andy Daniell - Whatever (ATFC's 'Am I Bovvered??' Remix) (6:50)

CD 2

01. David Penn & Rober Gaez - What Is House? (KOT Anthem) (Club Mix) (6:32)
02. River Ocean feat. India - Love & Happiness (Yemaya Y Ochun) (David Penn Vocal Mix) (7:39)
03. David Penn - El Sur (7:59)
04. Danny Clark & Jay Benham feat. SuSu Bobien - Wondrous (David Penn Remix) (7:23)
05. Sandy Rivera - I Can't Stop (David Penn Remix) (7:57)
06. Deux - Sun Rising Up (Vocal Mix) (8:00)
07. Ron Hall & The Muthafunkaz feat. Marc Evans - The Way You Love Me (David Penn Urbana Dub Mix) (6:04)
08. Jon Cutler feat. E-Man - It's Yours (David Penn Vocal Mix) (6:24)
09. Lenny Fontana presents Octah'Via - The Way (Chus & Penn Club Mix) (9:05)
10. Hardsoul feat. Fierce Ruling Diva - Self Religion (Believe In Me) (David Penn Remix) (7:00)
Exact Audio Copy V1.3 from 2. September 2016 

EAC extraction logfile from 27. February 2019, 19:12

Various / House Masters - ATFC & David Penn (CD1)

Used drive : ATAPI iHAS124 F Adapter: 1 ID: 0

Read mode : Secure
Utilize accurate stream : Yes
Defeat audio cache : Yes
Make use of C2 pointers : No

Read offset correction : 6
Overread into Lead-In and Lead-Out : No
Fill up missing offset samples with silence : Yes
Delete leading and trailing silent blocks : No
Null samples used in CRC calculations : Yes
Used interface : Native Win32 interface for Win NT & 2000
Gap handling : Appended to previous track

Used output format : User Defined Encoder
Selected bitrate : 1024 kBit/s
Quality : High
Add ID3 tag : No
Command line compressor : Q:\Exact Audio Copy\FLAC\FLAC.EXE
Additional command line options : -8 -V -T "ARTIST=%artist%" -T "TITLE=%title%" -T "ALBUM=%albumtitle%" -T "DATE=%year%" -T "TRACKNUMBER=%tracknr%" -T "GENRE=%genre%" -T "PERFORMER=%albuminterpret%" -T "COMPOSER=%composer%" %haslyrics%--tag-from-file=LYRICS="%lyricsfile%"%haslyrics% -T "ALBUMARTIST=%albumartist%" -T "DISCNUMBER=%cdnumber%" -T "TOTALDISCS=%totalcds%" -T "TOTALTRACKS=%numtracks%" -T "COMMENT=%comment%" %source% -o %dest%

TOC of the extracted CD

Track | Start | Length | Start sector | End sector
---------------------------------------------------------
1 | 0:00.00 | 9:39.62 | 0 | 43486
2 | 9:39.62 | 10:30.67 | 43487 | 90803
3 | 20:10.54 | 6:27.40 | 90804 | 119868
4 | 26:38.19 | 7:36.24 | 119869 | 154092
5 | 34:14.43 | 6:20.26 | 154093 | 182618
6 | 40:34.69 | 7:42.67 | 182619 | 217335
7 | 48:17.61 | 8:44.09 | 217336 | 256644
8 | 57:01.70 | 6:39.30 | 256645 | 286599
9 | 63:41.25 | 7:36.45 | 286600 | 320844
10 | 71:17.70 | 6:49.46 | 320845 | 351565

Track 1

Filename Q:\MUSIC - FLAC\°~_MUSICS\--- CD RIPS ---\01. ATFC Featuring Lisa Millett - Bad Habit (ATFC's Lektrotek Re-Visit).wav

Pre-gap length 0:00:02.00

Peak level 99.1 %
Extraction speed 5.5 X
Track quality 100.0 %
Test CRC 58403DE3
Copy CRC 58403DE3
Accurately ripped (confidence 4) [5327769B] (AR v2)
Copy OK

Track 2

Filename Q:\MUSIC - FLAC\°~_MUSICS\--- CD RIPS ---\02. ATFC - I Called U (The Conversation) (ATFC's Heated Conversation).wav

Pre-gap length 0:00:01.58

Peak level 99.0 %
Extraction speed 6.6 X
Track quality 100.0 %
Test CRC 1ED08CD5
Copy CRC 1ED08CD5
Accurately ripped (confidence 4) [7DE58BED] (AR v2)
Copy OK

Track 3

Filename Q:\MUSIC - FLAC\°~_MUSICS\--- CD RIPS ---\03. ATFC - Praise To The JBs.wav

Pre-gap length 0:00:01.58

Peak level 98.9 %
Extraction speed 7.0 X
Track quality 100.0 %
Test CRC 1573617F
Copy CRC 1573617F
Accurately ripped (confidence 4) [F239C25B] (AR v2)
Copy OK

Track 4

Filename Q:\MUSIC - FLAC\°~_MUSICS\--- CD RIPS ---\04. ATFC Featuring Yasmeen - Tell U Y (New Jack Swing Original).wav

Pre-gap length 0:00:01.58

Peak level 98.8 %
Extraction speed 7.7 X
Track quality 100.0 %
Test CRC 18E91810
Copy CRC 18E91810
Accurately ripped (confidence 4) [16F43A07] (AR v2)
Copy OK

Track 5

Filename Q:\MUSIC - FLAC\°~_MUSICS\--- CD RIPS ---\05. ATFC Presents OnePhatDeeva - In And Out Of My Life (ATFC Original Vocal).wav

Pre-gap length 0:00:01.58

Peak level 97.9 %
Extraction speed 8.0 X
Track quality 100.0 %
Test CRC C80A6A35
Copy CRC C80A6A35
Accurately ripped (confidence 4) [C4F9720B] (AR v2)
Copy OK

Track 6

Filename Q:\MUSIC - FLAC\°~_MUSICS\--- CD RIPS ---\06. John Dahlbäck & ATFC - Bon Bon.wav

Pre-gap length 0:00:01.58

Peak level 91.6 %
Extraction speed 8.7 X
Track quality 100.0 %
Test CRC 9D670148
Copy CRC 9D670148
Accurately ripped (confidence 4) [E3741C1D] (AR v2)
Copy OK

Track 7

Filename Q:\MUSIC - FLAC\°~_MUSICS\--- CD RIPS ---\07. ATFC Featuring Rae - Giv Me Luv (ATFC's Ocean Trench Mix).wav

Pre-gap length 0:00:01.58

Peak level 99.1 %
Extraction speed 9.4 X
Track quality 100.0 %
Test CRC DF8F8C5A
Copy CRC DF8F8C5A
Accurately ripped (confidence 4) [7D0C257F] (AR v2)
Copy OK

Track 8

Filename Q:\MUSIC - FLAC\°~_MUSICS\--- CD RIPS ---\08. ATFC Featuring Lisa Millett - Sleep Talk (Junior Jack Club Mix).wav

Pre-gap length 0:00:01.58

Peak level 97.6 %
Extraction speed 8.2 X
Track quality 99.9 %
Test CRC C507A7CA
Copy CRC C507A7CA
Accurately ripped (confidence 4) [C1638D47] (AR v2)
Copy OK

Track 9

Filename Q:\MUSIC - FLAC\°~_MUSICS\--- CD RIPS ---\09. Funkerman - Speed Up (ATFC's 0-60 Extended Mix).wav

Pre-gap length 0:00:01.58

Peak level 97.1 %
Extraction speed 9.9 X
Track quality 100.0 %
Test CRC F81E81F7
Copy CRC F81E81F7
Accurately ripped (confidence 4) [41E7060C] (AR v2)
Copy OK

Track 10

Filename Q:\MUSIC - FLAC\°~_MUSICS\--- CD RIPS ---\10. Sandy Rivera & Andy Daniell - Whatever (ATFC's 'Am I Bovvered' Remix).wav

Pre-gap length 0:00:01.58

Peak level 93.5 %
Extraction speed 3.7 X
Track quality 99.8 %
Test CRC 673CE67E
Copy CRC 673CE67E
Accurately ripped (confidence 4) [BD58B4F4] (AR v2)
Copy OK

All tracks accurately ripped

No errors occurred

End of status report

---- CUETools DB Plugin V2.1.6

[CTDB TOCID: Gb10uEZ8WQ3sWDA40IQih_ljV78-] found
Submit result: already submitted
Track | CTDB Status
1 | (12/12) Accurately ripped
2 | (12/12) Accurately ripped
3 | (12/12) Accurately ripped
4 | (12/12) Accurately ripped
5 | (12/12) Accurately ripped
6 | (12/12) Accurately ripped
7 | (12/12) Accurately ripped
8 | (12/12) Accurately ripped
9 | (12/12) Accurately ripped
10 | (11/12) Accurately ripped

==== Log checksum 7B4719CB4C91A9D47810ACF34568644F9C083A74BED0B04817F4B6B9914AB752 ====
REM GENRE House 
REM DATE 2009
REM DISCID 87124F0A
REM COMMENT "ExactAudioCopy v1.3"
PERFORMER "Various"
TITLE "House Masters - ATFC & David Penn (CD1)"
REM COMPOSER ""
FILE "01. ATFC Featuring Lisa Millett - Bad Habit (ATFC's Lektrotek Re-Visit).wav" WAVE
TRACK 01 AUDIO
TITLE "Bad Habit (ATFC's Lektrotek Re-Visit)"
PERFORMER "ATFC Featuring Lisa Millett"
REM COMPOSER ""
INDEX 01 00:00:00
TRACK 02 AUDIO
TITLE "I Called U (The Conversation) (ATFC's Heated Conversation)"
PERFORMER "ATFC"
REM COMPOSER ""
INDEX 00 09:38:04
FILE "02. ATFC - I Called U (The Conversation) (ATFC's Heated Conversation).wav" WAVE
INDEX 01 00:00:00
TRACK 03 AUDIO
TITLE "Praise To The JBs"
PERFORMER "ATFC"
REM COMPOSER ""
INDEX 00 10:29:09
FILE "03. ATFC - Praise To The JBs.wav" WAVE
INDEX 01 00:00:00
TRACK 04 AUDIO
TITLE "Tell U Y (New Jack Swing Original)"
PERFORMER "ATFC Featuring Yasmeen"
REM COMPOSER ""
INDEX 00 06:25:57
FILE "04. ATFC Featuring Yasmeen - Tell U Y (New Jack Swing Original).wav" WAVE
INDEX 01 00:00:00
TRACK 05 AUDIO
TITLE "In And Out Of My Life (ATFC Original Vocal)"
PERFORMER "ATFC Presents OnePhatDeeva"
REM COMPOSER ""
INDEX 00 07:34:41
FILE "05. ATFC Presents OnePhatDeeva - In And Out Of My Life (ATFC Original Vocal).wav" WAVE
INDEX 01 00:00:00
TRACK 06 AUDIO
TITLE "Bon Bon"
PERFORMER "John Dahlbдck & ATFC"
REM COMPOSER ""
INDEX 00 06:18:43
FILE "06. John Dahlbдck & ATFC - Bon Bon.wav" WAVE
INDEX 01 00:00:00
TRACK 07 AUDIO
TITLE "Giv Me Luv (ATFC's Ocean Trench Mix)"
PERFORMER "ATFC Featuring Rae"
REM COMPOSER ""
INDEX 00 07:41:09
FILE "07. ATFC Featuring Rae - Giv Me Luv (ATFC's Ocean Trench Mix).wav" WAVE
INDEX 01 00:00:00
TRACK 08 AUDIO
TITLE "Sleep Talk (Junior Jack Club Mix)"
PERFORMER "ATFC Featuring Lisa Millett"
REM COMPOSER ""
INDEX 00 08:42:26
FILE "08. ATFC Featuring Lisa Millett - Sleep Talk (Junior Jack Club Mix).wav" WAVE
INDEX 01 00:00:00
TRACK 09 AUDIO
TITLE "Speed Up (ATFC's 0-60 Extended Mix)"
PERFORMER "Funkerman"
REM COMPOSER ""
INDEX 00 06:37:47
FILE "09. Funkerman - Speed Up (ATFC's 0-60 Extended Mix).wav" WAVE
INDEX 01 00:00:00
TRACK 10 AUDIO
TITLE "Whatever (ATFC's 'Am I Bovvered??' Remix)"
PERFORMER "Sandy Rivera & Andy Daniell"
REM COMPOSER ""
INDEX 00 07:34:62
FILE "10. Sandy Rivera & Andy Daniell - Whatever (ATFC's 'Am I Bovvered' Remix).wav" WAVE
INDEX 01 00:00:00
Exact Audio Copy V1.3 from 2. September 2016 

EAC extraction logfile from 27. February 2019, 18:43

Various / House Masters - ATFC & David Penn

Used drive : ATAPI iHAS124 F Adapter: 1 ID: 0

Read mode : Secure
Utilize accurate stream : Yes
Defeat audio cache : Yes
Make use of C2 pointers : No

Read offset correction : 6
Overread into Lead-In and Lead-Out : No
Fill up missing offset samples with silence : Yes
Delete leading and trailing silent blocks : No
Null samples used in CRC calculations : Yes
Used interface : Native Win32 interface for Win NT & 2000
Gap handling : Appended to previous track

Used output format : User Defined Encoder
Selected bitrate : 1024 kBit/s
Quality : High
Add ID3 tag : No
Command line compressor : Q:\Exact Audio Copy\FLAC\FLAC.EXE
Additional command line options : -8 -V -T "ARTIST=%artist%" -T "TITLE=%title%" -T "ALBUM=%albumtitle%" -T "DATE=%year%" -T "TRACKNUMBER=%tracknr%" -T "GENRE=%genre%" -T "PERFORMER=%albuminterpret%" -T "COMPOSER=%composer%" %haslyrics%--tag-from-file=LYRICS="%lyricsfile%"%haslyrics% -T "ALBUMARTIST=%albumartist%" -T "DISCNUMBER=%cdnumber%" -T "TOTALDISCS=%totalcds%" -T "TOTALTRACKS=%numtracks%" -T "COMMENT=%comment%" %source% -o %dest%

TOC of the extracted CD

Track | Start | Length | Start sector | End sector
---------------------------------------------------------
1 | 0:00.00 | 6:32.12 | 0 | 29411
2 | 6:32.12 | 7:38.47 | 29412 | 63808
3 | 14:10.59 | 7:59.03 | 63809 | 99736
4 | 22:09.62 | 7:22.44 | 99737 | 132930
5 | 29:32.31 | 7:56.44 | 132931 | 168674
6 | 37:29.00 | 8:00.10 | 168675 | 204684
7 | 45:29.10 | 6:04.13 | 204685 | 231997
8 | 51:33.23 | 6:24.34 | 231998 | 260831
9 | 57:57.57 | 9:04.38 | 260832 | 301669
10 | 67:02.20 | 6:59.54 | 301670 | 333148

Track 1

Filename Q:\MUSIC - FLAC\°~_MUSICS\--- CD RIPS ---\01. David Penn & Rober Gaez - What Is House (KOT Anthem) (Club Mix).wav

Pre-gap length 0:00:02.00

Peak level 97.5 %
Extraction speed 6.0 X
Track quality 100.0 %
Test CRC EA04C5E2
Copy CRC EA04C5E2
Accurately ripped (confidence 3) [4A674BBC] (AR v2)
Copy OK

Track 2

Filename Q:\MUSIC - FLAC\°~_MUSICS\--- CD RIPS ---\02. River Ocean feat. India - Love & Happiness (Yemaya Y Ochun) (David Penn Vocal Mix).wav

Pre-gap length 0:00:01.58

Peak level 96.6 %
Extraction speed 7.0 X
Track quality 100.0 %
Test CRC 501EA25F
Copy CRC 501EA25F
Accurately ripped (confidence 3) [E3FD5AF6] (AR v2)
Copy OK

Track 3

Filename Q:\MUSIC - FLAC\°~_MUSICS\--- CD RIPS ---\03. David Penn - El Sur.wav

Pre-gap length 0:00:01.58

Peak level 97.6 %
Extraction speed 7.1 X
Track quality 99.9 %
Test CRC 5A99FA7C
Copy CRC 5A99FA7C
Accurately ripped (confidence 3) [C0F1BF25] (AR v2)
Copy OK

Track 4

Filename Q:\MUSIC - FLAC\°~_MUSICS\--- CD RIPS ---\04. Danny Clark & Jay Benham feat. SuSu Bobien - Wondrous (David Penn Remix).wav

Pre-gap length 0:00:01.58

Peak level 97.2 %
Extraction speed 8.8 X
Track quality 100.0 %
Test CRC 3CFA462C
Copy CRC 3CFA462C
Accurately ripped (confidence 3) [A62BC056] (AR v2)
Copy OK

Track 5

Filename Q:\MUSIC - FLAC\°~_MUSICS\--- CD RIPS ---\05. Sandy Rivera - I Can't Stop (David Penn Remix).wav

Pre-gap length 0:00:01.58

Peak level 94.8 %
Extraction speed 9.4 X
Track quality 100.0 %
Test CRC 3BD7206E
Copy CRC 3BD7206E
Accurately ripped (confidence 3) [BBE33AED] (AR v2)
Copy OK

Track 6

Filename Q:\MUSIC - FLAC\°~_MUSICS\--- CD RIPS ---\06. Deux - Sun Rising Up (Vocal Mix).wav

Pre-gap length 0:00:01.58

Peak level 98.1 %
Extraction speed 10.2 X
Track quality 100.0 %
Test CRC E650E3E7
Copy CRC E650E3E7
Accurately ripped (confidence 3) [B1AE7479] (AR v2)
Copy OK

Track 7

Filename Q:\MUSIC - FLAC\°~_MUSICS\--- CD RIPS ---\07. Ron Hall & The Muthafunkaz feat. Marc Evans - The Way You Love Me (David Penn Urbana Dub Mix).wav

Pre-gap length 0:00:01.58

Peak level 97.5 %
Extraction speed 8.6 X
Track quality 99.9 %
Test CRC 4BE87977
Copy CRC 4BE87977
Accurately ripped (confidence 3) [86E47BB8] (AR v2)
Copy OK

Track 8

Filename Q:\MUSIC - FLAC\°~_MUSICS\--- CD RIPS ---\08. Jon Cutler feat. E-Man - It's Yours (David Penn Vocal Mix).wav

Pre-gap length 0:00:01.58

Peak level 92.3 %
Extraction speed 9.1 X
Track quality 99.9 %
Test CRC 1176CC70
Copy CRC 1176CC70
Accurately ripped (confidence 3) [CFDD877E] (AR v2)
Copy OK

Track 9

Filename Q:\MUSIC - FLAC\°~_MUSICS\--- CD RIPS ---\09. Lenny Fontana presents Octah'Via - The Way (Chus & Penn Club Mix).wav

Pre-gap length 0:00:01.58

Peak level 96.6 %
Extraction speed 7.4 X
Track quality 99.9 %
Test CRC B0E66658
Copy CRC B0E66658
Accurately ripped (confidence 3) [2660CA2A] (AR v2)
Copy OK

Track 10

Filename Q:\MUSIC - FLAC\°~_MUSICS\--- CD RIPS ---\10. Hardsoul feat. Fierce Ruling Diva - Self Religion (Believe In Me) (David Penn Remix).wav

Pre-gap length 0:00:01.58

Peak level 97.1 %
Extraction speed 4.7 X
Track quality 99.9 %
Test CRC 6093B20F
Copy CRC 6093B20F
Accurately ripped (confidence 3) [98B128DD] (AR v2)
Copy OK

All tracks accurately ripped

No errors occurred

End of status report

---- CUETools DB Plugin V2.1.6

[CTDB TOCID: pb57dtZtZhjOB3yzitgmhLTqEWU-] found
Submit result: already submitted
Track | CTDB Status
1 | (14/14) Accurately ripped
2 | (14/14) Accurately ripped
3 | (14/14) Accurately ripped
4 | (14/14) Accurately ripped
5 | (14/14) Accurately ripped
6 | (14/14) Accurately ripped
7 | (14/14) Accurately ripped
8 | (14/14) Accurately ripped
9 | (14/14) Accurately ripped
10 | (14/14) Accurately ripped

==== Log checksum F224601191E3265C901E0B103C103F4F894D9AC6107ED07D960378292E19A4F7 ====
REM GENRE House 
REM DATE 2009
REM DISCID 8511590A
REM COMMENT "ExactAudioCopy v1.3"
PERFORMER "Various"
TITLE "House Masters - ATFC & David Penn"
REM COMPOSER ""
FILE "01. David Penn & Rober Gaez - What Is House (KOT Anthem) (Club Mix).wav" WAVE
TRACK 01 AUDIO
TITLE "What Is House? (KOT Anthem) (Club Mix)"
PERFORMER "David Penn & Rober Gaez"
REM COMPOSER ""
INDEX 01 00:00:00
TRACK 02 AUDIO
TITLE "Love & Happiness (Yemaya Y Ochun) (David Penn Vocal Mix)"
PERFORMER "River Ocean feat. India"
REM COMPOSER ""
INDEX 00 06:30:29
FILE "02. River Ocean feat. India - Love & Happiness (Yemaya Y Ochun) (David Penn Vocal Mix).wav" WAVE
INDEX 01 00:00:00
TRACK 03 AUDIO
TITLE "El Sur"
PERFORMER "David Penn"
REM COMPOSER ""
INDEX 00 07:36:64
FILE "03. David Penn - El Sur.wav" WAVE
INDEX 01 00:00:00
TRACK 04 AUDIO
TITLE "Wondrous (David Penn Remix)"
PERFORMER "Danny Clark & Jay Benham feat. SuSu Bobien"
REM COMPOSER ""
INDEX 00 07:57:20
FILE "04. Danny Clark & Jay Benham feat. SuSu Bobien - Wondrous (David Penn Remix).wav" WAVE
INDEX 01 00:00:00
TRACK 05 AUDIO
TITLE "I Can't Stop (David Penn Remix)"
PERFORMER "Sandy Rivera"
REM COMPOSER ""
INDEX 00 07:20:61
FILE "05. Sandy Rivera - I Can't Stop (David Penn Remix).wav" WAVE
INDEX 01 00:00:00
TRACK 06 AUDIO
TITLE "Sun Rising Up (Vocal Mix)"
PERFORMER "Deux"
REM COMPOSER ""
INDEX 00 07:54:61
FILE "06. Deux - Sun Rising Up (Vocal Mix).wav" WAVE
INDEX 01 00:00:00
TRACK 07 AUDIO
TITLE "The Way You Love Me (David Penn Urbana Dub Mix)"
PERFORMER "Ron Hall & The Muthafunkaz feat. Marc Evans"
REM COMPOSER ""
INDEX 00 07:58:27
FILE "07. Ron Hall & The Muthafunkaz feat. Marc Evans - The Way You Love Me (David Penn Urbana Dub Mix).wav" WAVE
INDEX 01 00:00:00
TRACK 08 AUDIO
TITLE "It's Yours (David Penn Vocal Mix)"
PERFORMER "Jon Cutler feat. E-Man"
REM COMPOSER ""
INDEX 00 06:02:30
FILE "08. Jon Cutler feat. E-Man - It's Yours (David Penn Vocal Mix).wav" WAVE
INDEX 01 00:00:00
TRACK 09 AUDIO
TITLE "The Way (Chus & Penn Club Mix)"
PERFORMER "Lenny Fontana presents Octah'Via"
REM COMPOSER ""
INDEX 00 06:22:51
FILE "09. Lenny Fontana presents Octah'Via - The Way (Chus & Penn Club Mix).wav" WAVE
INDEX 01 00:00:00
TRACK 10 AUDIO
TITLE "Self Religion (Believe In Me) (David Penn Remix)"
PERFORMER "Hardsoul feat. Fierce Ruling Diva"
REM COMPOSER ""
INDEX 00 09:02:55
FILE "10. Hardsoul feat. Fierce Ruling Diva - Self Religion (Believe In Me) (David Penn Remix).wav" WAVE
INDEX 01 00:00:00
[font="Tahoma"]

Продолжительность: 02:24:05

CD 1

01. Fish Go Deep & Tracey K - The Cure & The Cause (Dennis Ferrer Remix) (6:19)
02. Joey Negro presents The Sunburst Band - Journey To The Sun (Dennis Ferrer Remix) (6:23)
03. Blaze presents UDA feat. Barbara Tucker - Most Precious Love (DF Future 3000 Mix) (7:12)
04. Stephanie Cooke - Rain (Let It All Come Down) (DF's Rainforest Mix) (8:28)
05. Reel People feat. Darien - Alibi (DF's Out On Bail Mix) (6:38)
06. Copyright feat. Song Williamson - He Is (Ferrer & Sydenham Inc Vox Mix) (8:04)
07. Dubtribe Sound System - Nothing Is Impossible (Dennis Ferrer Club Mix) (7:34)
08. Reel People feat. Angela Johnson - Can't Stop (Dennis F's Falling 4 U Mix) (7:55)
09. Martin Solveig - Jealousy (Dennis Ferrer 'Haters' Club Mix) (6:44)
10. Solar House - Got 2 B U (Dennis Ferrer Eclipse Mix) (6:28)

CD 2

01. Son Of Raw - A Black Man In Space (Sax Mix) (7:26)
02. Sydenham & Ferrer - Sandcastles (Original) (7:26)
03. Dennis Ferrer feat. Mia Tuttavilla - Touched The Sky (7:37)
04. Dennis Ferrer feat. Danil Wright - Church Lady (7:25)
05. Dennis Ferrer feat. K.T. Brooks - How Do I Let Go (7:01)
06. Dennis Ferrer - Reach 4 Freedom (8:28)
07. Dennis Ferrer feat. Tyrone Ellis - Underground Is My Home (6:51)
08. Dennis Ferrer - Transitions (6:27)
09. Dennis Ferrer - P 2 Da J (6:09)
10. Dennis Ferrer feat. Kenny Bobien - Grateful (DF's Razen Yo Handz Vox Mix) (7:31)
Exact Audio Copy V1.0 beta 3 from 29. August 2011 

EAC extraction logfile from 21. March 2017, 5:45

Various / House Masters - Dennis Ferrer CD1

Used drive : Optiarc DVD RW AD-7260S Adapter: 3 ID: 0

Read mode : Secure
Utilize accurate stream : Yes
Defeat audio cache : Yes
Make use of C2 pointers : No

Read offset correction : 48
Overread into Lead-In and Lead-Out : No
Fill up missing offset samples with silence : Yes
Delete leading and trailing silent blocks : No
Null samples used in CRC calculations : Yes
Used interface : Native Win32 interface for Win NT & 2000
Gap handling : Appended to previous track

Used output format : User Defined Encoder
Selected bitrate : 1024 kBit/s
Quality : High
Add ID3 tag : No
Command line compressor : D:\Program Files\Exact Audio Copy1.0\FLAC\FLAC.EXE
Additional command line options : -8 -e -p -V -T "ARTIST=%artist%" -T "TITLE=%title%" -T "ALBUM=%albumtitle%" -T "DATE=%year%" -T "TRACKNUMBER=%tracknr%" -T "GENRE=%genre%" -T "PERFORMER=%albuminterpret%" -T "COMPOSER=%composer%" %haslyrics%--tag-from-file=LYRICS="%lyricsfile%"%haslyrics% -T "ALBUMARTIST=%albumartist%" -T "DISCNUMBER=%cdnumber%" -T "TOTALDISCS=%totalcds%" -T "TOTALTRACKS=%numtracks%" -T "COMMENT=%comment%" %source% -o %dest%

TOC of the extracted CD

Track | Start | Length | Start sector | End sector
---------------------------------------------------------
1 | 0:00.00 | 6:18.63 | 0 | 28412
2 | 6:18.63 | 6:22.63 | 28413 | 57125
3 | 12:41.51 | 7:11.49 | 57126 | 89499
4 | 19:53.25 | 8:28.29 | 89500 | 127628
5 | 28:21.54 | 6:38.13 | 127629 | 157491
6 | 34:59.67 | 8:03.45 | 157492 | 193761
7 | 43:03.37 | 7:34.03 | 193762 | 227814
8 | 50:37.40 | 7:54.70 | 227815 | 263434
9 | 58:32.35 | 6:44.20 | 263435 | 293754
10 | 65:16.55 | 6:27.42 | 293755 | 322821

Track 1

Filename E:\James77CDs\House Masters Dennis Ferrer - CD - 2008 - FLAC\Disc1\01 - Fish Go Deep & Tracey K - The Cure & The Cause (Dennis Ferrer Remix).wav

Pre-gap length 0:00:02.00

Peak level 100.0 %
Extraction speed 2.4 X
Track quality 99.9 %
Test CRC 8A1E0978
Copy CRC 8A1E0978
Accurately ripped (confidence 3) [7B54C9C3] (AR v2)
Copy OK

Track 2

Filename E:\James77CDs\House Masters Dennis Ferrer - CD - 2008 - FLAC\Disc1\02 - Joey Negro presents The Sunburst Band - Journey To The Sun (Dennis Ferrer Remix).wav

Pre-gap length 0:00:01.26

Peak level 81.3 %
Extraction speed 3.0 X
Track quality 100.0 %
Test CRC 025B8794
Copy CRC 025B8794
Accurately ripped (confidence 3) [F331C9F9] (AR v2)
Copy OK

Track 3

Filename E:\James77CDs\House Masters Dennis Ferrer - CD - 2008 - FLAC\Disc1\03 - Blaze presents UDA feat. Barbara Tucker - Most Precious Love (DF Future 3000 Mix).wav

Pre-gap length 0:00:01.28

Peak level 89.5 %
Extraction speed 3.3 X
Track quality 100.0 %
Test CRC 9CFF0B9D
Copy CRC 9CFF0B9D
Accurately ripped (confidence 3) [967D4B17] (AR v2)
Copy OK

Track 4

Filename E:\James77CDs\House Masters Dennis Ferrer - CD - 2008 - FLAC\Disc1\04 - Stephanie Cooke - Rain (Let It All Come Down) (DF's Rainforest Mix).wav

Pre-gap length 0:00:01.26

Peak level 98.8 %
Extraction speed 3.8 X
Track quality 100.0 %
Test CRC 3A23F6A4
Copy CRC 3A23F6A4
Accurately ripped (confidence 3) [F4977BE9] (AR v2)
Copy OK

Track 5

Filename E:\James77CDs\House Masters Dennis Ferrer - CD - 2008 - FLAC\Disc1\05 - Reel People feat. Darien - Alibi (DF's Out On Bail Mix).wav

Pre-gap length 0:00:01.28

Peak level 95.1 %
Extraction speed 4.0 X
Track quality 100.0 %
Test CRC D11AD831
Copy CRC D11AD831
Accurately ripped (confidence 3) [A29CBC1B] (AR v2)
Copy OK

Track 6

Filename E:\James77CDs\House Masters Dennis Ferrer - CD - 2008 - FLAC\Disc1\06 - Copyright feat. Song Williamson - He Is (Ferrer & Sydenham Inc Vox Mix).wav

Pre-gap length 0:00:01.26

Peak level 90.1 %
Extraction speed 4.4 X
Track quality 100.0 %
Test CRC E4E10E8F
Copy CRC E4E10E8F
Accurately ripped (confidence 3) [B0C444B8] (AR v2)
Copy OK

Track 7

Filename E:\James77CDs\House Masters Dennis Ferrer - CD - 2008 - FLAC\Disc1\07 - Dubtribe Sound System - Nothing Is Impossible (Dennis Ferrer Club Mix).wav

Pre-gap length 0:00:01.28

Peak level 93.7 %
Extraction speed 4.6 X
Track quality 100.0 %
Test CRC 256A9D36
Copy CRC 256A9D36
Accurately ripped (confidence 3) [C594F02A] (AR v2)
Copy OK

Track 8

Filename E:\James77CDs\House Masters Dennis Ferrer - CD - 2008 - FLAC\Disc1\08 - Reel People feat. Angela Johnson - Can't Stop (Dennis F's Falling 4 U Mix).wav

Pre-gap length 0:00:01.26

Peak level 99.5 %
Extraction speed 4.9 X
Track quality 100.0 %
Test CRC 842F94E2
Copy CRC 842F94E2
Accurately ripped (confidence 3) [83044633] (AR v2)
Copy OK

Track 9

Filename E:\James77CDs\House Masters Dennis Ferrer - CD - 2008 - FLAC\Disc1\09 - Martin Solveig - Jealousy (Dennis Ferrer 'Haters' Club Mix).wav

Pre-gap length 0:00:01.26

Peak level 93.3 %
Extraction speed 5.1 X
Track quality 100.0 %
Test CRC 8C81854F
Copy CRC 8C81854F
Accurately ripped (confidence 3) [913D7B0A] (AR v2)
Copy OK

Track 10

Filename E:\James77CDs\House Masters Dennis Ferrer - CD - 2008 - FLAC\Disc1\10 - Solar House - Got 2 B U (Dennis Ferrer Eclipse Mix).wav

Pre-gap length 0:00:01.26

Peak level 100.0 %
Extraction speed 5.3 X
Track quality 100.0 %
Test CRC D8FD83B4
Copy CRC D8FD83B4
Accurately ripped (confidence 3) [158530EA] (AR v2)
Copy OK

All tracks accurately ripped

No errors occurred

End of status report

==== Log checksum 89E8160D74EB1195779338B14C4E826A795A26FE02C963A96604873ED3F0A49B ====
REM GENRE House 
REM DATE 2008
REM DISCID 8110D00A
REM COMMENT "ExactAudioCopy v1.0b3"
PERFORMER "Various"
TITLE "House Masters - Dennis Ferrer CD1"
FILE "01 - Fish Go Deep & Tracey K - The Cure & The Cause (Dennis Ferrer Remix).wav" WAVE
TRACK 01 AUDIO
TITLE "The Cure & The Cause (Dennis Ferrer Remix)"
PERFORMER "Fish Go Deep & Tracey K"
ISRC GBCPZ0601429
INDEX 01 00:00:00
TRACK 02 AUDIO
TITLE "Journey To The Sun (Dennis Ferrer Remix)"
PERFORMER "Joey Negro presents The Sunburst Band"
ISRC GBPKF0800088
INDEX 00 06:17:43
FILE "02 - Joey Negro presents The Sunburst Band - Journey To The Sun (Dennis Ferrer Remix).wav" WAVE
INDEX 01 00:00:00
TRACK 03 AUDIO
TITLE "Most Precious Love (DF Future 3000 Mix)"
PERFORMER "Blaze presents UDA feat. Barbara Tucker"
ISRC GBCPZ0501181
INDEX 00 06:21:42
FILE "03 - Blaze presents UDA feat. Barbara Tucker - Most Precious Love (DF Future 3000 Mix).wav" WAVE
INDEX 01 00:00:00
TRACK 04 AUDIO
TITLE "Rain (Let It All Come Down) (DF's Rainforest Mix)"
PERFORMER "Stephanie Cooke"
ISRC USA670300001
INDEX 00 07:10:29
FILE "04 - Stephanie Cooke - Rain (Let It All Come Down) (DF's Rainforest Mix).wav" WAVE
INDEX 01 00:00:00
TRACK 05 AUDIO
TITLE "Alibi (DF's Out On Bail Mix)"
PERFORMER "Reel People feat. Darien"
ISRC GBFNE0830025
INDEX 00 08:27:08
FILE "05 - Reel People feat. Darien - Alibi (DF's Out On Bail Mix).wav" WAVE
INDEX 01 00:00:00
TRACK 06 AUDIO
TITLE "He Is (Ferrer & Sydenham Inc Vox Mix)"
PERFORMER "Copyright feat. Song Williamson"
ISRC GBCPZ0601441
INDEX 00 06:36:68
FILE "06 - Copyright feat. Song Williamson - He Is (Ferrer & Sydenham Inc Vox Mix).wav" WAVE
INDEX 01 00:00:00
TRACK 07 AUDIO
TITLE "Nothing Is Impossible (Dennis Ferrer Club Mix)"
PERFORMER "Dubtribe Sound System"
ISRC GBCPZ0401018
INDEX 00 08:02:24
FILE "07 - Dubtribe Sound System - Nothing Is Impossible (Dennis Ferrer Club Mix).wav" WAVE
INDEX 01 00:00:00
TRACK 08 AUDIO
TITLE "Can't Stop (Dennis F's Falling 4 U Mix)"
PERFORMER "Reel People feat. Angela Johnson"
ISRC GBFNE0300015
INDEX 00 07:32:58
FILE "08 - Reel People feat. Angela Johnson - Can't Stop (Dennis F's Falling 4 U Mix).wav" WAVE
INDEX 01 00:00:00
TRACK 09 AUDIO
TITLE "Jealousy (Dennis Ferrer 'Haters' Club Mix)"
PERFORMER "Martin Solveig"
ISRC FRU240500043
INDEX 00 07:53:50
FILE "09 - Martin Solveig - Jealousy (Dennis Ferrer 'Haters' Club Mix).wav" WAVE
INDEX 01 00:00:00
TRACK 10 AUDIO
TITLE "Got 2 B U (Dennis Ferrer Eclipse Mix)"
PERFORMER "Solar House"
ISRC US2250806601
INDEX 00 06:43:00
FILE "10 - Solar House - Got 2 B U (Dennis Ferrer Eclipse Mix).wav" WAVE
INDEX 01 00:00:00
Exact Audio Copy V1.0 beta 3 from 29. August 2011 

EAC extraction logfile from 21. March 2017, 6:47

Various / House Masters - Dennis Ferrer CD2

Used drive : Optiarc DVD RW AD-7260S Adapter: 3 ID: 0

Read mode : Secure
Utilize accurate stream : Yes
Defeat audio cache : Yes
Make use of C2 pointers : No

Read offset correction : 48
Overread into Lead-In and Lead-Out : No
Fill up missing offset samples with silence : Yes
Delete leading and trailing silent blocks : No
Null samples used in CRC calculations : Yes
Used interface : Native Win32 interface for Win NT & 2000
Gap handling : Appended to previous track

Used output format : User Defined Encoder
Selected bitrate : 1024 kBit/s
Quality : High
Add ID3 tag : No
Command line compressor : D:\Program Files\Exact Audio Copy1.0\FLAC\FLAC.EXE
Additional command line options : -8 -e -p -V -T "ARTIST=%artist%" -T "TITLE=%title%" -T "ALBUM=%albumtitle%" -T "DATE=%year%" -T "TRACKNUMBER=%tracknr%" -T "GENRE=%genre%" -T "PERFORMER=%albuminterpret%" -T "COMPOSER=%composer%" %haslyrics%--tag-from-file=LYRICS="%lyricsfile%"%haslyrics% -T "ALBUMARTIST=%albumartist%" -T "DISCNUMBER=%cdnumber%" -T "TOTALDISCS=%totalcds%" -T "TOTALTRACKS=%numtracks%" -T "COMMENT=%comment%" %source% -o %dest%

TOC of the extracted CD

Track | Start | Length | Start sector | End sector
---------------------------------------------------------
1 | 0:00.00 | 7:25.71 | 0 | 33445
2 | 7:25.71 | 7:25.63 | 33446 | 66883
3 | 14:51.59 | 7:36.39 | 66884 | 101122
4 | 22:28.23 | 7:25.09 | 101123 | 134506
5 | 29:53.32 | 7:01.04 | 134507 | 166085
6 | 36:54.36 | 8:28.12 | 166086 | 204197
7 | 45:22.48 | 6:51.04 | 204198 | 235026
8 | 52:13.52 | 6:26.47 | 235027 | 264023
9 | 58:40.24 | 6:08.58 | 264024 | 291681
10 | 64:49.07 | 7:31.27 | 291682 | 325533

Track 1

Filename E:\James77CDs\House Masters Dennis Ferrer - CD - 2008 - FLAC\Disc2\01 - Son Of Raw - A Black Man In Space (Sax Mix).wav

Pre-gap length 0:00:02.00

Peak level 87.9 %
Extraction speed 2.6 X
Track quality 100.0 %
Test CRC D294E761
Copy CRC D294E761
Accurately ripped (confidence 4) [E2867B3C] (AR v2)
Copy OK

Track 2

Filename E:\James77CDs\House Masters Dennis Ferrer - CD - 2008 - FLAC\Disc2\02 - Sydenham & Ferrer - Sandcastles (Original).wav

Pre-gap length 0:00:01.28

Peak level 96.6 %
Extraction speed 2.8 X
Track quality 99.9 %
Test CRC 793BD222
Copy CRC 793BD222
Accurately ripped (confidence 4) [0054346F] (AR v2)
Copy OK

Track 3

Filename E:\James77CDs\House Masters Dennis Ferrer - CD - 2008 - FLAC\Disc2\03 - Dennis Ferrer feat. Mia Tuttavilla - Touched The Sky.wav

Pre-gap length 0:00:01.28

Peak level 96.6 %
Extraction speed 3.3 X
Track quality 99.9 %
Test CRC 7BA449F9
Copy CRC 7BA449F9
Accurately ripped (confidence 4) [626AFE19] (AR v2)
Copy OK

Track 4

Filename E:\James77CDs\House Masters Dennis Ferrer - CD - 2008 - FLAC\Disc2\04 - Dennis Ferrer feat. Danil Wright - Church Lady.wav

Pre-gap length 0:00:01.28

Peak level 95.5 %
Extraction speed 3.8 X
Track quality 100.0 %
Test CRC 8A9239D0
Copy CRC 8A9239D0
Accurately ripped (confidence 4) [AED69854] (AR v2)
Copy OK

Track 5

Filename E:\James77CDs\House Masters Dennis Ferrer - CD - 2008 - FLAC\Disc2\05 - Dennis Ferrer feat. K.T. Brooks - How Do I Let Go.wav

Pre-gap length 0:00:01.26

Peak level 98.9 %
Extraction speed 4.2 X
Track quality 100.0 %
Test CRC 6FC023E8
Copy CRC 6FC023E8
Accurately ripped (confidence 4) [16AF6FC5] (AR v2)
Copy OK

Track 6

Filename E:\James77CDs\House Masters Dennis Ferrer - CD - 2008 - FLAC\Disc2\06 - Dennis Ferrer - Reach 4 Freedom.wav

Pre-gap length 0:00:01.28

Peak level 95.5 %
Extraction speed 4.5 X
Track quality 100.0 %
Test CRC D0081553
Copy CRC D0081553
Accurately ripped (confidence 4) [B1C5B10C] (AR v2)
Copy OK

Track 7

Filename E:\James77CDs\House Masters Dennis Ferrer - CD - 2008 - FLAC\Disc2\07 - Dennis Ferrer feat. Tyrone Ellis - Underground Is My Home.wav

Pre-gap length 0:00:01.26

Peak level 95.5 %
Extraction speed 4.7 X
Track quality 100.0 %
Test CRC 52708CA8
Copy CRC 52708CA8
Accurately ripped (confidence 4) [55B0DB26] (AR v2)
Copy OK

Track 8

Filename E:\James77CDs\House Masters Dennis Ferrer - CD - 2008 - FLAC\Disc2\08 - Dennis Ferrer - Transitions.wav

Pre-gap length 0:00:01.28

Peak level 95.5 %
Extraction speed 4.9 X
Track quality 100.0 %
Test CRC C4B8744F
Copy CRC C4B8744F
Accurately ripped (confidence 4) [442E108D] (AR v2)
Copy OK

Track 9

Filename E:\James77CDs\House Masters Dennis Ferrer - CD - 2008 - FLAC\Disc2\09 - Dennis Ferrer - P 2 Da J.wav

Pre-gap length 0:00:01.26

Peak level 92.3 %
Extraction speed 4.9 X
Track quality 100.0 %
Test CRC 943465E7
Copy CRC 943465E7
Accurately ripped (confidence 4) [82D80476] (AR v2)
Copy OK

Track 10

Filename E:\James77CDs\House Masters Dennis Ferrer - CD - 2008 - FLAC\Disc2\10 - Dennis Ferrer feat. Kenny Bobien - Grateful (DF's Razen Yo Handz Vox Mix).wav

Pre-gap length 0:00:01.26

Peak level 98.8 %
Extraction speed 5.4 X
Track quality 100.0 %
Test CRC 9E45637B
Copy CRC 9E45637B
Accurately ripped (confidence 3) [371150B4] (AR v2)
Copy OK

All tracks accurately ripped

No errors occurred

End of status report

==== Log checksum C736775150AA314ED2DAAEA5BE3C19927AB241B495D34BA690C9EDBED52609FF ====
REM GENRE House 
REM DATE 2008
REM DISCID 8B10F40A
REM COMMENT "ExactAudioCopy v1.0b3"
PERFORMER "Various"
TITLE "House Masters - Dennis Ferrer CD2"
FILE "01 - Son Of Raw - A Black Man In Space (Sax Mix).wav" WAVE
TRACK 01 AUDIO
TITLE "A Black Man In Space (Sax Mix)"
PERFORMER "Son Of Raw"
ISRC USY6S0700014
INDEX 01 00:00:00
TRACK 02 AUDIO
TITLE "Sandcastles (Original)"
PERFORMER "Sydenham & Ferrer"
ISRC GBCPZ0501084
INDEX 00 07:24:50
FILE "02 - Sydenham & Ferrer - Sandcastles (Original).wav" WAVE
INDEX 01 00:00:00
TRACK 03 AUDIO
TITLE "Touched The Sky"
PERFORMER "Dennis Ferrer feat. Mia Tuttavilla"
ISRC GBCPZ0601697
INDEX 00 07:24:42
FILE "03 - Dennis Ferrer feat. Mia Tuttavilla - Touched The Sky.wav" WAVE
INDEX 01 00:00:00
TRACK 04 AUDIO
TITLE "Church Lady"
PERFORMER "Dennis Ferrer feat. Danil Wright"
ISRC GBCPZ0601623
INDEX 00 07:35:18
FILE "04 - Dennis Ferrer feat. Danil Wright - Church Lady.wav" WAVE
INDEX 01 00:00:00
TRACK 05 AUDIO
TITLE "How Do I Let Go"
PERFORMER "Dennis Ferrer feat. K.T. Brooks"
ISRC GBCPZ0601700
INDEX 00 07:23:64
FILE "05 - Dennis Ferrer feat. K.T. Brooks - How Do I Let Go.wav" WAVE
INDEX 01 00:00:00
TRACK 06 AUDIO
TITLE "Reach 4 Freedom"
PERFORMER "Dennis Ferrer"
ISRC GBCPZ0601705
INDEX 00 06:59:58
FILE "06 - Dennis Ferrer - Reach 4 Freedom.wav" WAVE
INDEX 01 00:00:00
TRACK 07 AUDIO
TITLE "Underground Is My Home"
PERFORMER "Dennis Ferrer feat. Tyrone Ellis"
ISRC GBCPZ0601699
INDEX 00 08:26:67
FILE "07 - Dennis Ferrer feat. Tyrone Ellis - Underground Is My Home.wav" WAVE
INDEX 01 00:00:00
TRACK 08 AUDIO
TITLE "Transitions"
PERFORMER "Dennis Ferrer"
ISRC GBCPZ0601702
INDEX 00 06:49:58
FILE "08 - Dennis Ferrer - Transitions.wav" WAVE
INDEX 01 00:00:00
TRACK 09 AUDIO
TITLE "P 2 Da J"
PERFORMER "Dennis Ferrer"
ISRC GBCPZ0601698
INDEX 00 06:25:27
FILE "09 - Dennis Ferrer - P 2 Da J.wav" WAVE
INDEX 01 00:00:00
TRACK 10 AUDIO
TITLE "Grateful (DF's Razen Yo Handz Vox Mix)"
PERFORMER "Dennis Ferrer feat. Kenny Bobien"
ISRC USY6S0800005
INDEX 00 06:07:38
FILE "10 - Dennis Ferrer feat. Kenny Bobien - Grateful (DF's Razen Yo Handz Vox Mix).wav" WAVE
INDEX 01 00:00:00
[font="Tahoma"]

Продолжительность: 02:32:05

CD 1

01. Cheek - Venus (Sunshine People) (DJ Gregory Remix) (4:57)
02. DJ Gregory & Gregor Salto - Con Alegria (Main Mix) (6:50)
03. DJ Gregory - Block Party (6:18)
04. DJ Gregory - Don't Panic (Original) (8:49)
05. DJ Gregory - Tropical Soundclash (8:33)
06. DJ Gregory - Attend 1 (Original) (5:56)
07. John Ciafone - Everyday (DJ Gregory's Mix) (8:45)
08. DJ Gregory - Solaris (7:51)
09. DJ Gregory - Elle (Original) (7:05)
10. DJ Gregory & Gregor Salto - Push In The Bush (Main Mix) (7:06)

CD 2

01. Julien Jabre - Wonderland (Free End Mix) (6:32)
02. Julien Jabre - Swimming Places (Original Mix) (10:43)
03. Peppermint Candy - Chocolate Girl (Julien Jabre Remix) (6:14)
04. The Deep & Fred Melosax - Dom Dom Jump (7:49)
05. Julien Jabre - Yalopa (8:07)
06. Julien Jabre - Boomerang (7:16)
07. Julien Jabre - Vicious Circle (Main Mix) (8:00)
08. Julien Jabre - Voodance (7:29)
09. Julien Jabre - Talking Walls (8:12)
10. Julien Jabre - War (9:34)
Exact Audio Copy V1.3 from 2. September 2016 

EAC extraction logfile from 28. February 2019, 16:31

Various / House Masters - DJ Gregory & Julien Jabre (CD1)

Used drive : ATAPI iHAS124 F Adapter: 1 ID: 0

Read mode : Secure
Utilize accurate stream : Yes
Defeat audio cache : Yes
Make use of C2 pointers : No

Read offset correction : 6
Overread into Lead-In and Lead-Out : No
Fill up missing offset samples with silence : Yes
Delete leading and trailing silent blocks : No
Null samples used in CRC calculations : Yes
Used interface : Native Win32 interface for Win NT & 2000
Gap handling : Appended to previous track

Used output format : User Defined Encoder
Selected bitrate : 1024 kBit/s
Quality : High
Add ID3 tag : No
Command line compressor : Q:\Exact Audio Copy\FLAC\FLAC.EXE
Additional command line options : -8 -V -T "ARTIST=%artist%" -T "TITLE=%title%" -T "ALBUM=%albumtitle%" -T "DATE=%year%" -T "TRACKNUMBER=%tracknr%" -T "GENRE=%genre%" -T "PERFORMER=%albuminterpret%" -T "COMPOSER=%composer%" %haslyrics%--tag-from-file=LYRICS="%lyricsfile%"%haslyrics% -T "ALBUMARTIST=%albumartist%" -T "DISCNUMBER=%cdnumber%" -T "TOTALDISCS=%totalcds%" -T "TOTALTRACKS=%numtracks%" -T "COMMENT=%comment%" %source% -o %dest%

TOC of the extracted CD

Track | Start | Length | Start sector | End sector
---------------------------------------------------------
1 | 0:00.00 | 4:56.68 | 0 | 22267
2 | 4:56.68 | 6:50.36 | 22268 | 53053
3 | 11:47.29 | 6:17.55 | 53054 | 81383
4 | 18:05.09 | 8:48.73 | 81384 | 121056
5 | 26:54.07 | 8:32.54 | 121057 | 159510
6 | 35:26.61 | 5:56.10 | 159511 | 186220
7 | 41:22.71 | 8:44.71 | 186221 | 225591
8 | 50:07.67 | 7:51.28 | 225592 | 260944
9 | 57:59.20 | 7:04.57 | 260945 | 292801
10 | 65:04.02 | 7:05.56 | 292802 | 324732

Track 1

Filename Q:\MUSIC - FLAC\°~_MUSICS\--- CD RIPS ---\01. Cheek - Venus (Sunshine People) (DJ Gregory Remix).wav

Pre-gap length 0:00:02.00

Peak level 97.3 %
Extraction speed 5.5 X
Track quality 100.0 %
Test CRC 0C4E46DA
Copy CRC 0C4E46DA
Accurately ripped (confidence 2) [67111684] (AR v2)
Copy OK

Track 2

Filename Q:\MUSIC - FLAC\°~_MUSICS\--- CD RIPS ---\02. DJ Gregory & Gregor Salto - Con Alegria (Main Mix).wav

Pre-gap length 0:00:01.58

Peak level 89.1 %
Extraction speed 6.4 X
Track quality 100.0 %
Test CRC 65B45863
Copy CRC 65B45863
Accurately ripped (confidence 2) [902BAEDC] (AR v2)
Copy OK

Track 3

Filename Q:\MUSIC - FLAC\°~_MUSICS\--- CD RIPS ---\03. DJ Gregory - Block Party.wav

Pre-gap length 0:00:02.02

Peak level 87.6 %
Extraction speed 7.1 X
Track quality 100.0 %
Test CRC E821CEBA
Copy CRC E821CEBA
Accurately ripped (confidence 2) [CDBED92D] (AR v2)
Copy OK

Track 4

Filename Q:\MUSIC - FLAC\°~_MUSICS\--- CD RIPS ---\04. DJ Gregory - Don't Panic (Original).wav

Pre-gap length 0:00:01.20

Peak level 98.8 %
Extraction speed 8.0 X
Track quality 100.0 %
Test CRC 81CFB568
Copy CRC 81CFB568
Accurately ripped (confidence 2) [36E605A7] (AR v2)
Copy OK

Track 5

Filename Q:\MUSIC - FLAC\°~_MUSICS\--- CD RIPS ---\05. DJ Gregory - Tropical Soundclash.wav

Pre-gap length 0:00:02.20

Peak level 89.5 %
Extraction speed 8.7 X
Track quality 100.0 %
Test CRC 9DD867F0
Copy CRC 9DD867F0
Accurately ripped (confidence 2) [ECB3B8F8] (AR v2)
Copy OK

Track 6

Filename Q:\MUSIC - FLAC\°~_MUSICS\--- CD RIPS ---\06. DJ Gregory - Attend 1 (Original).wav

Pre-gap length 0:00:01.19

Peak level 98.8 %
Extraction speed 9.1 X
Track quality 100.0 %
Test CRC 1FCE9AFA
Copy CRC 1FCE9AFA
Accurately ripped (confidence 2) [0F58A23D] (AR v2)
Copy OK

Track 7

Filename Q:\MUSIC - FLAC\°~_MUSICS\--- CD RIPS ---\07. John Ciafone - Everyday (DJ Gregory's Mix).wav

Pre-gap length 0:00:01.68

Peak level 90.1 %
Extraction speed 9.8 X
Track quality 100.0 %
Test CRC 954EA6B9
Copy CRC 954EA6B9
Accurately ripped (confidence 2) [1C8847EC] (AR v2)
Copy OK

Track 8

Filename Q:\MUSIC - FLAC\°~_MUSICS\--- CD RIPS ---\08. DJ Gregory - Solaris.wav

Pre-gap length 0:00:02.21

Peak level 98.8 %
Extraction speed 10.4 X
Track quality 100.0 %
Test CRC E2DCEBB5
Copy CRC E2DCEBB5
Accurately ripped (confidence 2) [492F8D90] (AR v2)
Copy OK

Track 9

Filename Q:\MUSIC - FLAC\°~_MUSICS\--- CD RIPS ---\09. DJ Gregory - Elle (Original).wav

Pre-gap length 0:00:02.21

Peak level 98.8 %
Extraction speed 10.8 X
Track quality 100.0 %
Test CRC 1DE8E5F6
Copy CRC 1DE8E5F6
Accurately ripped (confidence 2) [282909E1] (AR v2)
Copy OK

Track 10

Filename Q:\MUSIC - FLAC\°~_MUSICS\--- CD RIPS ---\10. DJ Gregory & Gregor Salto - Push In The Bush (Main Mix).wav

Pre-gap length 0:00:02.06

Peak level 83.3 %
Extraction speed 11.0 X
Track quality 100.0 %
Test CRC 7C301828
Copy CRC 7C301828
Accurately ripped (confidence 2) [0C102A59] (AR v2)
Copy OK

All tracks accurately ripped

No errors occurred

End of status report

---- CUETools DB Plugin V2.1.6

[CTDB TOCID: jC7aQq8ARbdqi7OlfMwsMl3gZE4-] found
Submit result: jC7aQq8ARbdqi7OlfMwsMl3gZE4- has been confirmed
Track | CTDB Status
1 | (6/6) Accurately ripped
2 | (6/6) Accurately ripped
3 | (6/6) Accurately ripped
4 | (6/6) Accurately ripped
5 | (6/6) Accurately ripped
6 | (6/6) Accurately ripped
7 | (6/6) Accurately ripped
8 | (6/6) Accurately ripped
9 | (6/6) Accurately ripped
10 | (5/6) Accurately ripped

==== Log checksum 34EDBFC9312799818408813E49B0AC9B6E4BE1D8F89D65B2FD3F571C2341E5A7 ====
REM GENRE House 
REM DATE 2009
REM DISCID 9010E90A
REM COMMENT "ExactAudioCopy v1.3"
PERFORMER "Various"
TITLE "House Masters - DJ Gregory & Julien Jabre (CD1)"
REM COMPOSER ""
FILE "01. Cheek - Venus (Sunshine People) (DJ Gregory Remix).wav" WAVE
TRACK 01 AUDIO
TITLE "Venus (Sunshine People) (DJ Gregory Remix)"
PERFORMER "Cheek"
REM COMPOSER ""
INDEX 01 00:00:00
TRACK 02 AUDIO
TITLE "Con Alegria (Main Mix)"
PERFORMER "DJ Gregory & Gregor Salto"
REM COMPOSER ""
INDEX 00 04:55:10
FILE "02. DJ Gregory & Gregor Salto - Con Alegria (Main Mix).wav" WAVE
INDEX 01 00:00:00
TRACK 03 AUDIO
TITLE "Block Party"
PERFORMER "DJ Gregory"
REM COMPOSER ""
INDEX 00 06:48:34
FILE "03. DJ Gregory - Block Party.wav" WAVE
INDEX 01 00:00:00
TRACK 04 AUDIO
TITLE "Don't Panic (Original)"
PERFORMER "DJ Gregory"
REM COMPOSER ""
INDEX 00 06:16:35
FILE "04. DJ Gregory - Don't Panic (Original).wav" WAVE
INDEX 01 00:00:00
TRACK 05 AUDIO
TITLE "Tropical Soundclash"
PERFORMER "DJ Gregory"
REM COMPOSER ""
INDEX 00 08:46:53
FILE "05. DJ Gregory - Tropical Soundclash.wav" WAVE
INDEX 01 00:00:00
TRACK 06 AUDIO
TITLE "Attend 1 (Original)"
PERFORMER "DJ Gregory"
REM COMPOSER ""
INDEX 00 08:31:35
FILE "06. DJ Gregory - Attend 1 (Original).wav" WAVE
INDEX 01 00:00:00
TRACK 07 AUDIO
TITLE "Everyday (DJ Gregory's Mix)"
PERFORMER "John Ciafone"
REM COMPOSER ""
INDEX 00 05:54:17
FILE "07. John Ciafone - Everyday (DJ Gregory's Mix).wav" WAVE
INDEX 01 00:00:00
TRACK 08 AUDIO
TITLE "Solaris"
PERFORMER "DJ Gregory"
REM COMPOSER ""
INDEX 00 08:42:50
FILE "08. DJ Gregory - Solaris.wav" WAVE
INDEX 01 00:00:00
TRACK 09 AUDIO
TITLE "Elle (Original)"
PERFORMER "DJ Gregory"
REM COMPOSER ""
INDEX 00 07:49:07
FILE "09. DJ Gregory - Elle (Original).wav" WAVE
INDEX 01 00:00:00
TRACK 10 AUDIO
TITLE "Push In The Bush (Main Mix)"
PERFORMER "DJ Gregory & Gregor Salto"
REM COMPOSER ""
INDEX 00 07:02:51
FILE "10. DJ Gregory & Gregor Salto - Push In The Bush (Main Mix).wav" WAVE
INDEX 01 00:00:00
Exact Audio Copy V1.3 from 2. September 2016 

EAC extraction logfile from 28. February 2019, 18:54

Various / House Masters - DJ Gregory & Julien Jabre (CD2)

Used drive : ATAPI iHAS124 F Adapter: 1 ID: 0

Read mode : Secure
Utilize accurate stream : Yes
Defeat audio cache : Yes
Make use of C2 pointers : No

Read offset correction : 6
Overread into Lead-In and Lead-Out : No
Fill up missing offset samples with silence : Yes
Delete leading and trailing silent blocks : No
Null samples used in CRC calculations : Yes
Used interface : Native Win32 interface for Win NT & 2000
Gap handling : Appended to previous track

Used output format : User Defined Encoder
Selected bitrate : 1024 kBit/s
Quality : High
Add ID3 tag : No
Command line compressor : Q:\Exact Audio Copy\FLAC\FLAC.EXE
Additional command line options : -8 -V -T "ARTIST=%artist%" -T "TITLE=%title%" -T "ALBUM=%albumtitle%" -T "DATE=%year%" -T "TRACKNUMBER=%tracknr%" -T "GENRE=%genre%" -T "PERFORMER=%albuminterpret%" -T "COMPOSER=%composer%" %haslyrics%--tag-from-file=LYRICS="%lyricsfile%"%haslyrics% -T "ALBUMARTIST=%albumartist%" -T "DISCNUMBER=%cdnumber%" -T "TOTALDISCS=%totalcds%" -T "TOTALTRACKS=%numtracks%" -T "COMMENT=%comment%" %source% -o %dest%

TOC of the extracted CD

Track | Start | Length | Start sector | End sector
---------------------------------------------------------
1 | 0:00.00 | 6:31.54 | 0 | 29378
2 | 6:31.54 | 10:42.54 | 29379 | 77582
3 | 17:14.33 | 6:13.73 | 77583 | 105630
4 | 23:28.31 | 7:48.45 | 105631 | 140775
5 | 31:17.01 | 8:06.66 | 140776 | 177291
6 | 39:23.67 | 7:16.02 | 177292 | 209993
7 | 46:39.69 | 8:00.16 | 209994 | 246009
8 | 54:40.10 | 7:29.13 | 246010 | 279697
9 | 62:09.23 | 8:12.05 | 279698 | 316602
10 | 70:21.28 | 9:33.48 | 316603 | 359625

Track 1

Filename Q:\MUSIC - FLAC\°~_MUSICS\--- CD RIPS ---\01. Julien Jabre - Wonderland (Free End Mix).wav

Pre-gap length 0:00:02.00

Peak level 95.7 %
Extraction speed 6.2 X
Track quality 100.0 %
Test CRC 795960F1
Copy CRC 795960F1
Accurately ripped (confidence 2) [A8A7068E] (AR v2)
Copy OK

Track 2

Filename Q:\MUSIC - FLAC\°~_MUSICS\--- CD RIPS ---\02. Julien Jabre - Swimming Places (Original Mix).wav

Pre-gap length 0:00:00.66

Peak level 82.4 %
Extraction speed 6.8 X
Track quality 99.9 %
Test CRC 4F97C9A3
Copy CRC 4F97C9A3
Accurately ripped (confidence 2) [3B79DA1A] (AR v2)
Copy OK

Track 3

Filename Q:\MUSIC - FLAC\°~_MUSICS\--- CD RIPS ---\03. Peppermint Candy - Chocolate Girl (Julien Jabre Remix).wav

Pre-gap length 0:00:01.58

Peak level 98.6 %
Extraction speed 8.0 X
Track quality 100.0 %
Test CRC BD3EC51D
Copy CRC BD3EC51D
Accurately ripped (confidence 2) [94F21349] (AR v2)
Copy OK

Track 4

Filename Q:\MUSIC - FLAC\°~_MUSICS\--- CD RIPS ---\04. The Deep & Fred Melosax - Dom Dom Jump.wav

Pre-gap length 0:00:00.58

Peak level 98.8 %
Extraction speed 8.8 X
Track quality 100.0 %
Test CRC A64AF166
Copy CRC A64AF166
Accurately ripped (confidence 2) [E945C4B2] (AR v2)
Copy OK

Track 5

Filename Q:\MUSIC - FLAC\°~_MUSICS\--- CD RIPS ---\05. Julien Jabre - Yalopa.wav

Pre-gap length 0:00:01.58

Peak level 98.8 %
Extraction speed 9.5 X
Track quality 100.0 %
Test CRC CD74F699
Copy CRC CD74F699
Accurately ripped (confidence 2) [53EC737E] (AR v2)
Copy OK

Track 6

Filename Q:\MUSIC - FLAC\°~_MUSICS\--- CD RIPS ---\06. Julien Jabre - Boomerang.wav

Pre-gap length 0:00:01.20

Peak level 98.8 %
Extraction speed 10.0 X
Track quality 100.0 %
Test CRC 748A7956
Copy CRC 748A7956
Accurately ripped (confidence 2) [B4FE6583] (AR v2)
Copy OK

Track 7

Filename Q:\MUSIC - FLAC\°~_MUSICS\--- CD RIPS ---\07. Julien Jabre - Vicious Circle (Main Mix).wav

Pre-gap length 0:00:01.21

Peak level 97.7 %
Extraction speed 10.6 X
Track quality 100.0 %
Test CRC 0439076A
Copy CRC 0439076A
Accurately ripped (confidence 2) [FF04BC63] (AR v2)
Copy OK

Track 8

Filename Q:\MUSIC - FLAC\°~_MUSICS\--- CD RIPS ---\08. Julien Jabre - Voodance.wav

Pre-gap length 0:00:01.20

Peak level 98.8 %
Extraction speed 9.9 X
Track quality 99.9 %
Test CRC 84C735AB
Copy CRC 84C735AB
Accurately ripped (confidence 2) [8FC9BA13] (AR v2)
Copy OK

Track 9

Filename Q:\MUSIC - FLAC\°~_MUSICS\--- CD RIPS ---\09. Julien Jabre - Talking Walls.wav

Pre-gap length 0:00:01.20

Peak level 88.1 %
Extraction speed 11.5 X
Track quality 100.0 %
Test CRC 871D5EBD
Copy CRC 871D5EBD
Accurately ripped (confidence 2) [684F02DE] (AR v2)
Copy OK

Track 10

Filename Q:\MUSIC - FLAC\°~_MUSICS\--- CD RIPS ---\10. Julien Jabre - War.wav

Pre-gap length 0:00:01.28

Peak level 84.3 %
Extraction speed 12.2 X
Track quality 100.0 %
Test CRC 8476BA74
Copy CRC 8476BA74
Accurately ripped (confidence 2) [2185131F] (AR v2)
Copy OK

All tracks accurately ripped

No errors occurred

End of status report

---- CUETools DB Plugin V2.1.6

[CTDB TOCID: X8ysld2AHqIrq4H6mw1D78V0pVE-] found
Submit result: X8ysld2AHqIrq4H6mw1D78V0pVE- has been confirmed
Track | CTDB Status
1 | (6/6) Accurately ripped
2 | (6/6) Accurately ripped
3 | (6/6) Accurately ripped
4 | (6/6) Accurately ripped
5 | (6/6) Accurately ripped
6 | (6/6) Accurately ripped
7 | (5/6) Accurately ripped
8 | (6/6) Accurately ripped
9 | (6/6) Accurately ripped
10 | (6/6) Accurately ripped

==== Log checksum 7ED774067BD48FB84C7600CA5022909BDE639B9867E67B548C9C486384E3A625 ====
REM GENRE House 
REM DATE 2009
REM DISCID 7D12BB0A
REM COMMENT "ExactAudioCopy v1.3"
PERFORMER "Various"
TITLE "House Masters - DJ Gregory & Julien Jabre (CD2)"
REM COMPOSER ""
FILE "01. Julien Jabre - Wonderland (Free End Mix).wav" WAVE
TRACK 01 AUDIO
TITLE "Wonderland (Free End Mix)"
PERFORMER "Julien Jabre"
REM COMPOSER ""
INDEX 01 00:00:00
TRACK 02 AUDIO
TITLE "Swimming Places (Original Mix)"
PERFORMER "Julien Jabre"
REM COMPOSER ""
INDEX 00 06:30:63
FILE "02. Julien Jabre - Swimming Places (Original Mix).wav" WAVE
INDEX 01 00:00:00
TRACK 03 AUDIO
TITLE "Chocolate Girl (Julien Jabre Remix)"
PERFORMER "Peppermint Candy"
REM COMPOSER ""
INDEX 00 10:40:71
FILE "03. Peppermint Candy - Chocolate Girl (Julien Jabre Remix).wav" WAVE
INDEX 01 00:00:00
TRACK 04 AUDIO
TITLE "Dom Dom Jump"
PERFORMER "The Deep & Fred Melosax"
REM COMPOSER ""
INDEX 00 06:13:15
FILE "04. The Deep & Fred Melosax - Dom Dom Jump.wav" WAVE
INDEX 01 00:00:00
TRACK 05 AUDIO
TITLE "Yalopa"
PERFORMER "Julien Jabre"
REM COMPOSER ""
INDEX 00 07:46:62
FILE "05. Julien Jabre - Yalopa.wav" WAVE
INDEX 01 00:00:00
TRACK 06 AUDIO
TITLE "Boomerang"
PERFORMER "Julien Jabre"
REM COMPOSER ""
INDEX 00 08:05:46
FILE "06. Julien Jabre - Boomerang.wav" WAVE
INDEX 01 00:00:00
TRACK 07 AUDIO
TITLE "Vicious Circle (Main Mix)"
PERFORMER "Julien Jabre"
REM COMPOSER ""
INDEX 00 07:14:56
FILE "07. Julien Jabre - Vicious Circle (Main Mix).wav" WAVE
INDEX 01 00:00:00
TRACK 08 AUDIO
TITLE "Voodance"
PERFORMER "Julien Jabre"
REM COMPOSER ""
INDEX 00 07:58:71
FILE "08. Julien Jabre - Voodance.wav" WAVE
INDEX 01 00:00:00
TRACK 09 AUDIO
TITLE "Talking Walls"
PERFORMER "Julien Jabre"
REM COMPOSER ""
INDEX 00 07:27:68
FILE "09. Julien Jabre - Talking Walls.wav" WAVE
INDEX 01 00:00:00
TRACK 10 AUDIO
TITLE "War"
PERFORMER "Julien Jabre"
REM COMPOSER ""
INDEX 00 08:10:52
FILE "10. Julien Jabre - War.wav" WAVE
INDEX 01 00:00:00
[font="Tahoma"]

Продолжительность: 03:37:15

01. Dj Gregory - Looke (7:47)
02. Dj Gregory - Con Alegria [Main Mix] (ft. Gregor Salto) (6:50)
03. Dj Gregory - Damelo (6:14)
04. Dj Gregory - Don't Panic (8:49)
05. Dj Gregory - Don't Know Malendro (8:22)
06. Dj Gregory - Attend 1 (5:56)
07. John Ciafone - Everyday [Dj Gregory's Mix] (8:45)
08. Dj Gregory - Solaris (7:51)
09. Dj Gregory - Elle (7:05)
10. Dj Gregory - Push In The Bush [Main Mix] (ft. Gregor Salto) (7:06)
11. Julien Jabre - Wonderland [Free End Mix] (6:32)
12. Julien Jabre - Swimming Places (10:43)
13. Peppermint Candy - Chocolate Girl [Julien Jabre Remix] (6:14)
14. The Deep & Fred Melosax - Dom Dom Jump (7:49)
15. Julien Jabre - Yalopa (8:07)
16. Julien Jabre - Boomerang (7:16)
17. Julien Jabre - Vicious Circle (Main Mix) (8:04)
18. Julien Jabre - Voodance (7:29)
19. Julien Jabre - Talking Walls (8:12)
20. Julian Jabre - War (9:34)
21. Soha - Balance (9:14)
22. Soha - Foulchette (8:23)
23. Soha - Original (7:12)
24. Soha - Seas And Sirens (7:27)
25. Soha - Amour (5:52)
26. Soha - Eve (7:20)
27. Soha - Gabbeh (4:36)
28. Soha - Izabelle (4:49)
29. Soha - Takemussa (7:38)
----------------------- 

DON'T MODIFY THIS FILE

-----------------------

PERFORMER: auCDtect Task Manager, ver. 1.6.0 RC1 build 1.6.0.1
Copyright (c) 2008-2010 y-soft. All rights reserved
http://y-soft.org

ANALYZER: auCDtect: CD records authenticity detector, version 0.8.2
Copyright (c) 2004 Oleg Berngardt. All rights reserved.
Copyright (c) 2004 Alexander Djourik. All rights reserved.

FILE: 29. Soha - Takemussa.flac
Size: 55420038 Hash: AEF5E574792BFB3B74D2E74EE472BE1B Accuracy: -m0
Conclusion: CDDA 100%
Signature: 4A0D476F86CA0BEFD1D4599A45FF254405C68CD2
FILE: 28. Soha - Izabelle.flac
Size: 32153005 Hash: BFA83ED088833D9C86A7E69D4B21409D Accuracy: -m0
Conclusion: CDDA 100%
Signature: 631B783202A142F9785B57F644EC79841230F878
FILE: 27. Soha - Gabbeh.flac
Size: 31584925 Hash: 6E995AA92A4CD408E1C09555AF664090 Accuracy: -m0
Conclusion: CDDA 100%
Signature: A416C93A60F18D60A93221EC0211810CDF61187C
FILE: 26. Soha - EvE.flac
Size: 47620046 Hash: 2B58ADEC3E622662D67BBB7E1940E8C2 Accuracy: -m0
Conclusion: CDDA 100%
Signature: 35959B7F86BADB11024B1B995BDF1243E0697573
FILE: 25. Soha - Amour.flac
Size: 40273052 Hash: 7C2331C07A3D63CBE64B8CE1B938A1B6 Accuracy: -m0
Conclusion: CDDA 100%
Signature: 784F07E2359F721A5E178C4D05A89AC1B0A906B6
FILE: 24. Soha - Seas and Sirens.flac
Size: 48922368 Hash: 90161D44B0EFACA2A264A0CC4BBDB9EB Accuracy: -m0
Conclusion: CDDA 100%
Signature: F33174F2F7A8F286D7A4C6B32D7EEC194189C98B
FILE: 23. Soha - Original.flac
Size: 34851824 Hash: CA80BF9DADC100ED94D5B71585F71F89 Accuracy: -m0
Conclusion: CDDA 99%
Signature: D7B6F22719C15A5FFF893F2BA1C7C45FB8445EBC
FILE: 22. Soha - Foulchette.flac
Size: 53267340 Hash: AC9F7B17B7BD3253727E25DDE98DFC77 Accuracy: -m0
Conclusion: CDDA 100%
Signature: 76125EB03F7FA4D64758C7EC7296EDEEEAD935B3
FILE: 21. Soha - Balance.flac
Size: 50372472 Hash: 25D38A4ABA147F7583136D28834F63D6 Accuracy: -m0
Conclusion: CDDA 100%
Signature: ABDA896D3DDC97508C30DEC2C404BF2FC9B0B1E9
FILE: 20. Julian Jabre - War.flac
Size: 71955262 Hash: F83441915E2215646E5EDF36D7768BA2 Accuracy: -m0
Conclusion: CDDA 100%
Signature: 86BA2768CECC4C2176A7BAD24F94D25D4D58B6ED
FILE: 19. Julien Jabre - Talking Walls.flac
Size: 57599139 Hash: BBDE7D8C7B6412A50DA836F44A23CAAF Accuracy: -m0
Conclusion: CDDA 100%
Signature: 4AE7F993A37AC33279931152B3CDD8CE196A95B9
FILE: 18. Julien Jabre - Voodance.flac
Size: 55190208 Hash: 95F9B70FF471C747B1163F408CF43B49 Accuracy: -m0
Conclusion: CDDA 100%
Signature: 953D06CEBB171DA05812DE49D60D126EB7E7D097
FILE: 17. Julien Jabre - Vicious Circle (Main Mix).flac
Size: 58531251 Hash: B0E2FABB0CDE121D31902D2101011657 Accuracy: -m0
Conclusion: CDDA 100%
Signature: E8B1432DB27B63657A7B43D70997588DDEC5F234
FILE: 16. Julien Jabre - Boomerang.flac
Size: 42865201 Hash: BB5A79D6CD7F2FF4674DB9F3BD5F8498 Accuracy: -m0
Conclusion: CDDA 100%
Signature: 559728E5DF589E5632AB1C7838520C7A1CEF0AFB
FILE: 15. Julien Jabre - Yalopa.flac
Size: 58982987 Hash: E2DDC0822CEEA0D531E14243B8BDC6A6 Accuracy: -m0
Conclusion: CDDA 100%
Signature: 8095E312494D59C2808A0080C689D42389819E6A
FILE: 14. The Deep & Fred Melosax - Dom Dom Jump.flac
Size: 41820090 Hash: 3C2F78BCD3AA68898D9F5D4EE700840B Accuracy: -m0
Conclusion: CDDA 99%
Signature: 9D030C633C116A7F88E4E37844FF1168C2238AA2
FILE: 13. Peppermint Candy - Chocolate Girl [Julien Jabre Remix].flac
Size: 45000595 Hash: AFD0CE274E3CF032BA3C61E22B081508 Accuracy: -m0
Conclusion: CDDA 100%
Signature: ADC48FB960065AE08E06FBF1FD4DB928C3DE79E1
FILE: 12. Julien Jabre - Swimming Places.flac
Size: 82327305 Hash: E84CE126E5AD35609F8E9BB0213AF7F8 Accuracy: -m0
Conclusion: CDDA 76%
Signature: 6A3899D36E0F39540BC9B1B41A5836F2FBD6272B
FILE: 11. Julien Jabre - Wonderland [Free End Mix].flac
Size: 46019295 Hash: BB08BB3FFF3D7272A7DCD2C07C512AE5 Accuracy: -m0
Conclusion: CDDA 100%
Signature: C3FDB7D23942824F3095132DF89AC3566F354468
FILE: 10. DJ Gregory - Push In The Bush [Main Mix] (feat. Gregor Salto).flac
Size: 45960203 Hash: B40ED966123CB670ED3B5495CFB8E3EB Accuracy: -m0
Conclusion: CDDA 100%
Signature: 36A9AAD69CD4945ED7394497E33263E3EB271D74
FILE: 09. DJ Gregory - Elle.flac
Size: 52133017 Hash: 5292FAA0D4656921EDB5DBABE0BB900A Accuracy: -m0
Conclusion: CDDA 100%
Signature: 8F0CA4DDAF02CF1F8B6D2CC6FEA543E9863D6CCE
FILE: 08. DJ Gregory - Solaris.flac
Size: 63710262 Hash: 6162C00264114DEECDD01D5B5506CB69 Accuracy: -m0
Conclusion: CDDA 100%
Signature: F484A8F140FD10EBFF12BBF91B8F2DAE0095A02F
FILE: 07. John Ciafone - Everyday [DJ Gregory's Mix].flac
Size: 65227701 Hash: 9ECA87A7D52E4BC53E681EC134A677B6 Accuracy: -m0
Conclusion: CDDA 100%
Signature: D14E9213850DAE4BD87A207150ABBAFD011A747E
FILE: 06. DJ Gregory - Attend 1.flac
Size: 44475742 Hash: A6359D7E7BC15CC128F05824FA182178 Accuracy: -m0
Conclusion: CDDA 100%
Signature: 50FC2C7393BB4296B3E4DEAA69988C4D25FECFCD
FILE: 05. DJ Gregory - Don't Know Malendro.flac
Size: 65953292 Hash: 29536B27B3BDFEABA54F6B45ACC3C13A Accuracy: -m0
Conclusion: CDDA 100%
Signature: 0D75029E423AD1E91AD1E4704C315485D611DAF9
FILE: 04. DJ Gregory - Don't Panic.flac
Size: 63454165 Hash: 5BFDEDE788223CAE538809F8C326A01C Accuracy: -m0
Conclusion: CDDA 100%
Signature: 3219A9FD3D3809C82AA5E55D928B34051DD73F09
FILE: 03. DJ Gregory - Damelo.flac
Size: 47650857 Hash: 27B894AA4D582918EE24BEDE84B6FEB9 Accuracy: -m0
Conclusion: CDDA 100%
Signature: 12948C9ACDEAE148B571F292E86C26BA446E967B
FILE: 02. DJ Gregory - Con Alegria [Main Mix] (feat. Gregor Salto).flac
Size: 44720731 Hash: B6A218433021E6F469E1EBFCCF0531BF Accuracy: -m0
Conclusion: CDDA 100%
Signature: CC5F5D957F44B14DAE8596756E60929909757223
FILE: 01. DJ Gregory - Looke.flac
Size: 53633439 Hash: 3B75DA929473837C5B1FFE3FD5C3E605 Accuracy: -m0
Conclusion: CDDA 100%
Signature: C80C22560CA3E889E4F33D5A6236BBD2E9C0A8D9

Этот торрент недоступен для скачивания без регистрации, однако доступен по публичной magnet-ссылке (источники с публичных трекеров). Перед использованием ссылки прочтите, пожалуйста Пользовательское соглашение, а также как можно дольше оставайтесь на раздаче! Для того, чтобы скачать сам торрент-файл (который видит больше источников), а также для того, чтобы поблагодарить релизера, вам необходимо зарегистрироваться. Если регистрироваться лень - вы можете также попробовать скачать релиз по нашим партнерским ссылкам ниже. Кроме того, зарегистрированным пользователям не показывается всплывающая реклама при скачивании.

[underver.se].t224654.torrent
Трекер: Зарегистрирован   [ 15.10.2021 07:17 ]  
Статус: проверено (by Renesans at 15.10.2021 07:18)
Поблагодарили: пока никто не поблагодарил...
Тип торрента: публичный - доступные источники с открытых трекеров: 
Размер: 38.42 GB (занимает 8.78 DVDR, для записи нужно 9 болванок DVDR/RW)
 
 

Яндекс.Метрика powered by Sphinx


В Н И М А Н И Е
Сайт не распространяет и не хранит электронные версии произведений, а лишь бесплатно и без коммерческой выгоды (не требуя взамен платы,
SMS и т.д.) предоставляет доступ к создаваемому пользователями каталогу ссылок на торрент-файлы, которые содержат только списки хеш-сумм.
Убедительная просьба с жалобами обращаться напрямую к пользователю, разместившему торрент файл.

Вверх