Loading...
Error

(Hard Trance, Tech Trance, Progressive House) Racoon - Houseman [CDS] (1997) [FLAC (tracks+.cue), lossless]

Статистика раздачи
Размер:  160 MB   |    Зарегистрирован:  11 месяцев   |    Скачан:  4 раза

Полного источника не было: 8 месяцев

Сидов:  0  |  0 KB/s  ]   Личеров:  0  |  0 KB/s  ]

* - сиды/пиры с внешних источников

   
 
Автор Сообщение

Renesans Пол:Муж

15-Окт-2021 12:51

Racoon / Houseman

Жанр: Hard Trance, Tech Trance, Progressive House
Носитель: CDS
Год издания: 1997
Издатель (лейбл): Universal Prime Breaks
Номер по каталогу: DMDUPB023 CD

Аудиокодек: FLAC (*.flac)
Тип рипа: tracks+.cue
Продолжительность: 22:40
Источник: собственный рип
Наличие сканов в содержимом раздачи: да
01. Racoon - Attention (8:23)
02. Racoon - Insanity (8:32)
03. Racoon - Take It Higher (5:46)
 
Exact Audio Copy V1.6 from 23. October 2020

EAC extraction logfile from 9. March 2021, 21:46

Racoon / Houseman

Used drive : ASUS DRW-24B5ST Adapter: 1 ID: 0

Read mode : Secure
Utilize accurate stream : Yes
Defeat audio cache : Yes
Make use of C2 pointers : No

Read offset correction : 6
Overread into Lead-In and Lead-Out : No
Fill up missing offset samples with silence : Yes
Delete leading and trailing silent blocks : No
Null samples used in CRC calculations : Yes
Used interface : Native Win32 interface for Win NT & 2000
Gap handling : Appended to previous track

Used output format : User Defined Encoder
Selected bitrate : 128 kBit/s
Quality : High
Add ID3 tag : No
Command line compressor : D:\flac-1.3.2-win\win64\flac.exe
Additional command line options : -8 -V -T "ARTIST=%artist%" -T "TITLE=%title%" -T "ALBUM=%albumtitle%" -T "DATE=%year%" -T "TRACKNUMBER=%tracknr%" -T "GENRE=%genre%" -T "COMMENT=ripped by Andy aka yetiisyou" %source%

TOC of the extracted CD

Track | Start | Length | Start sector | End sector
---------------------------------------------------------
1 | 0:00.00 | 8:22.54 | 0 | 37703
2 | 8:22.54 | 8:31.26 | 37704 | 76054
3 | 16:54.05 | 5:45.49 | 76055 | 101978

Track 1

Filename M:\!Ripped by Andy aka yetiisyou\Racoon - Houseman [DMDUPB023 CD] [1997]\01. Racoon - Attention.wav

Pre-gap length 0:00:02.00

Peak level 94.9 %
Extraction speed 3.9 X
Track quality 100.0 %
Test CRC 44325F30
Copy CRC 44325F30
Track not present in AccurateRip database
Copy OK

Track 2

Filename M:\!Ripped by Andy aka yetiisyou\Racoon - Houseman [DMDUPB023 CD] [1997]\02. Racoon - Insanity.wav

Pre-gap length 0:00:01.73

Peak level 94.9 %
Extraction speed 4.7 X
Track quality 100.0 %
Test CRC ABC16DF5
Copy CRC ABC16DF5
Track not present in AccurateRip database
Copy OK

Track 3

Filename M:\!Ripped by Andy aka yetiisyou\Racoon - Houseman [DMDUPB023 CD] [1997]\03. Racoon - Take It Higher.wav

Pre-gap length 0:00:01.73

Peak level 94.9 %
Extraction speed 4.3 X
Track quality 99.9 %
Test CRC 4C54BE0C
Copy CRC 4C54BE0C
Track not present in AccurateRip database
Copy OK

None of the tracks are present in the AccurateRip database

No errors occurred

End of status report

---- CUETools DB Plugin V2.1.6

[CTDB TOCID: jOMJ5HwKwef3Qk4ypCYVWZ.4lsw-] found
Submit result: jOMJ5HwKwef3Qk4ypCYVWZ.4lsw- has been confirmed
Track | CTDB Status
1 | (1/1) Accurately ripped
2 | (1/1) Accurately ripped
3 | (1/1) Accurately ripped

==== Log checksum 7D409B795D692431F04C8F26270AD61012E00A628B0EA71902ED94AA3BEF6993 ====

 
REM GENRE Trance
REM DATE 1997
REM DISCID 13054F03
REM COMMENT "ExactAudioCopy v1.6"
PERFORMER "Racoon"
TITLE "Houseman"
REM COMPOSER ""
FILE "01. Racoon - Attention.wav" WAVE
TRACK 01 AUDIO
TITLE "Attention"
PERFORMER "Racoon"
REM COMPOSER ""
INDEX 01 00:00:00
TRACK 02 AUDIO
TITLE "Insanity"
PERFORMER "Racoon"
REM COMPOSER ""
INDEX 00 08:20:56
FILE "02. Racoon - Insanity.wav" WAVE
INDEX 01 00:00:00
TRACK 03 AUDIO
TITLE "Take It Higher"
PERFORMER "Racoon"
REM COMPOSER ""
INDEX 00 08:29:28
FILE "03. Racoon - Take It Higher.wav" WAVE
INDEX 01 00:00:00

Этот торрент недоступен для скачивания без регистрации, однако доступен по публичной magnet-ссылке (источники с публичных трекеров). Перед использованием ссылки прочтите, пожалуйста Пользовательское соглашение, а также как можно дольше оставайтесь на раздаче! Для того, чтобы скачать сам торрент-файл (который видит больше источников), а также для того, чтобы поблагодарить релизера, вам необходимо зарегистрироваться. Если регистрироваться лень - вы можете также попробовать скачать релиз по нашим партнерским ссылкам ниже. Кроме того, зарегистрированным пользователям не показывается всплывающая реклама при скачивании.

[underver.se].t224678.torrent
Трекер: Зарегистрирован   [ 15.10.2021 12:51 ]  
Статус: проверено (by Renesans at 15.10.2021 12:51)
Поблагодарили: пока никто не поблагодарил...
Тип торрента: публичный - доступные источники с открытых трекеров: 
Размер: 160 MB (занимает 0.04 DVDR, для записи нужно 1 болванка DVDR/RW)
 
 

Яндекс.Метрика powered by Sphinx


В Н И М А Н И Е
Сайт не распространяет и не хранит электронные версии произведений, а лишь бесплатно и без коммерческой выгоды (не требуя взамен платы,
SMS и т.д.) предоставляет доступ к создаваемому пользователями каталогу ссылок на торрент-файлы, которые содержат только списки хеш-сумм.
Убедительная просьба с жалобами обращаться напрямую к пользователю, разместившему торрент файл.

Вверх