Loading...
Error

(Trance, Hard Trance) Pulsedriver - Take U High / I'm Rushin 2000[CDM] (2000) [FLAC (tracks+.cue), lossless]

Статистика раздачи
Размер:  204 MB   |    Зарегистрирован:  11 месяцев   |    Скачан:  3 раза

Полного источника не было: 28 дней

Сидов:  0  |  0 KB/s  ]   Личеров:  0  |  0 KB/s  ]

* - сиды/пиры с внешних источников

   
 
Автор Сообщение

Renesans Пол:Муж

15-Окт-2021 12:54

Pulsedriver / Take U High / I'm Rushin 2000

Жанр: Trance, Hard Trance
Носитель: CDM
Год издания: 2000
Издатель (лейбл): Zeitgeist
Номер по каталогу: 561 546-2

Аудиокодек: FLAC (*.flac)
Тип рипа: tracks+.cue
Продолжительность: 24:04
Источник: собственный рип
Наличие сканов в содержимом раздачи: да
01. Pulsedriver - Take U High (Short Version) (3:06)
02. Pulsedriver - Take U High (Extended Version) (6:04)
03. Pulsedriver - Take U High (Tube Remix) (5:35)
04. Pulsedriver - I'm Rushin 2000 (Short Version) (3:44)
05. Pulsedriver - I'm Rushin 2000 (New Club Mix) (5:37)
 
Exact Audio Copy V1.5 from 20. February 2020

EAC extraction logfile from 8. March 2021, 21:00

Pulsedriver / Take U High + I'm Rushin 2000

Used drive : ASUS DRW-24B5ST Adapter: 1 ID: 0

Read mode : Secure
Utilize accurate stream : Yes
Defeat audio cache : Yes
Make use of C2 pointers : No

Read offset correction : 6
Overread into Lead-In and Lead-Out : No
Fill up missing offset samples with silence : Yes
Delete leading and trailing silent blocks : No
Null samples used in CRC calculations : Yes
Used interface : Native Win32 interface for Win NT & 2000
Gap handling : Appended to previous track

Used output format : User Defined Encoder
Selected bitrate : 128 kBit/s
Quality : High
Add ID3 tag : No
Command line compressor : D:\flac-1.3.2-win\win64\flac.exe
Additional command line options : -8 -V -T "ARTIST=%artist%" -T "TITLE=%title%" -T "ALBUM=%albumtitle%" -T "DATE=%year%" -T "TRACKNUMBER=%tracknr%" -T "GENRE=%genre%" -T "COMMENT=ripped by Andy aka yetiisyou" %source%

TOC of the extracted CD

Track | Start | Length | Start sector | End sector
---------------------------------------------------------
1 | 0:00.00 | 3:05.31 | 0 | 13905
2 | 3:05.31 | 6:03.44 | 13906 | 41174
3 | 9:09.00 | 5:34.38 | 41175 | 66262
4 | 14:43.38 | 3:43.07 | 66263 | 82994
5 | 18:26.45 | 5:36.61 | 82995 | 108255

Track 1

Filename M:\!Ripped by Andy aka yetiisyou\Pulsedriver - Take U High + I'm Rushin 2000 [561 546-2] [2000]\01. Pulsedriver - Take U High (Short Version).wav

Pre-gap length 0:00:02.00

Peak level 99.9 %
Extraction speed 3.7 X
Track quality 100.0 %
Test CRC A30B64BE
Copy CRC A30B64BE
Accurately ripped (confidence 1) [7855A5E2] (AR v2)
Copy OK

Track 2

Filename M:\!Ripped by Andy aka yetiisyou\Pulsedriver - Take U High + I'm Rushin 2000 [561 546-2] [2000]\02. Pulsedriver - Take U High (Extended Version).wav

Pre-gap length 0:00:01.01

Peak level 99.9 %
Extraction speed 4.5 X
Track quality 100.0 %
Test CRC AD594FD0
Copy CRC AD594FD0
Accurately ripped (confidence 1) [39B4F4C0] (AR v2)
Copy OK

Track 3

Filename M:\!Ripped by Andy aka yetiisyou\Pulsedriver - Take U High + I'm Rushin 2000 [561 546-2] [2000]\03. Pulsedriver - Take U High (Tube Remix).wav

Pre-gap length 0:00:01.01

Peak level 99.9 %
Extraction speed 4.9 X
Track quality 100.0 %
Test CRC 55FCDF37
Copy CRC 55FCDF37
Accurately ripped (confidence 1) [E739242E] (AR v2)
Copy OK

Track 4

Filename M:\!Ripped by Andy aka yetiisyou\Pulsedriver - Take U High + I'm Rushin 2000 [561 546-2] [2000]\04. Pulsedriver - I'm Rushin 2000 (Short Version).wav

Pre-gap length 0:00:00.17

Peak level 99.9 %
Extraction speed 4.0 X
Track quality 99.9 %
Test CRC B57DCBCD
Copy CRC B57DCBCD
Accurately ripped (confidence 1) [5D6F786A] (AR v2)
Copy OK

Track 5

Filename M:\!Ripped by Andy aka yetiisyou\Pulsedriver - Take U High + I'm Rushin 2000 [561 546-2] [2000]\05. Pulsedriver - I'm Rushin 2000 (New Club Mix).wav

Pre-gap length 0:00:01.28

Peak level 99.9 %
Extraction speed 5.5 X
Track quality 100.0 %
Test CRC 1CB3A95F
Copy CRC 1CB3A95F
Accurately ripped (confidence 1) [FAC3A64B] (AR v2)
Copy OK

All tracks accurately ripped

No errors occurred

End of status report

---- CUETools DB Plugin V2.1.6

[CTDB TOCID: CkIwsqym_Z1lKkPytl90sqAldpU-] found
Submit result: CkIwsqym_Z1lKkPytl90sqAldpU- has been confirmed
Track | CTDB Status
1 | (2/2) Accurately ripped
2 | (2/2) Accurately ripped
3 | (2/2) Accurately ripped
4 | (2/2) Accurately ripped
5 | (2/2) Accurately ripped

==== Log checksum 43C1FC6D34B5ACE58E708FF0463233052F0CB213893FE3E28979BF23174FE650 ====

 
REM GENRE Trance
REM DATE 2000
REM DISCID 3C05A305
REM COMMENT "ExactAudioCopy v1.5"
CATALOG 0731456154626
PERFORMER "Pulsedriver"
TITLE "Take U High + I'm Rushin 2000"
REM COMPOSER ""
FILE "01. Pulsedriver - Take U High (Short Version).wav" WAVE
TRACK 01 AUDIO
TITLE "Take U High (Short Version)"
PERFORMER "Pulsedriver"
REM COMPOSER ""
ISRC DEN129901446
INDEX 01 00:00:00
TRACK 02 AUDIO
TITLE "Take U High (Extended Version)"
PERFORMER "Pulsedriver"
REM COMPOSER ""
ISRC DEN129901447
INDEX 00 03:04:30
FILE "02. Pulsedriver - Take U High (Extended Version).wav" WAVE
INDEX 01 00:00:00
TRACK 03 AUDIO
TITLE "Take U High (Tube Remix)"
PERFORMER "Pulsedriver"
REM COMPOSER ""
ISRC DEN129901448
INDEX 00 06:02:43
FILE "03. Pulsedriver - Take U High (Tube Remix).wav" WAVE
INDEX 01 00:00:00
TRACK 04 AUDIO
TITLE "I'm Rushin 2000 (Short Version)"
PERFORMER "Pulsedriver"
REM COMPOSER ""
ISRC DEN129901449
INDEX 00 05:34:21
FILE "04. Pulsedriver - I'm Rushin 2000 (Short Version).wav" WAVE
INDEX 01 00:00:00
TRACK 05 AUDIO
TITLE "I'm Rushin 2000 (New Club Mix)"
PERFORMER "Pulsedriver"
REM COMPOSER ""
ISRC DEN129901450
INDEX 00 03:41:54
FILE "05. Pulsedriver - I'm Rushin 2000 (New Club Mix).wav" WAVE
INDEX 01 00:00:00

Этот торрент недоступен для скачивания без регистрации, однако доступен по публичной magnet-ссылке (источники с публичных трекеров). Перед использованием ссылки прочтите, пожалуйста Пользовательское соглашение, а также как можно дольше оставайтесь на раздаче! Для того, чтобы скачать сам торрент-файл (который видит больше источников), а также для того, чтобы поблагодарить релизера, вам необходимо зарегистрироваться. Если регистрироваться лень - вы можете также попробовать скачать релиз по нашим партнерским ссылкам ниже. Кроме того, зарегистрированным пользователям не показывается всплывающая реклама при скачивании.

[underver.se].t224679.torrent
Трекер: Зарегистрирован   [ 15.10.2021 12:54 ]  
Статус: проверено (by Renesans at 15.10.2021 12:55)
Поблагодарили: пока никто не поблагодарил...
Тип торрента: публичный - доступные источники с открытых трекеров: 
Размер: 204 MB (занимает 0.05 DVDR, для записи нужно 1 болванка DVDR/RW)
 
 

Яндекс.Метрика powered by Sphinx


В Н И М А Н И Е
Сайт не распространяет и не хранит электронные версии произведений, а лишь бесплатно и без коммерческой выгоды (не требуя взамен платы,
SMS и т.д.) предоставляет доступ к создаваемому пользователями каталогу ссылок на торрент-файлы, которые содержат только списки хеш-сумм.
Убедительная просьба с жалобами обращаться напрямую к пользователю, разместившему торрент файл.

Вверх