Loading...
Error

Уральские пельмени. Азбука Уральских пельменей. «Ю» [эфир от 15.10] (Константин Куц, Леонид Коновалов, Анастасия Гуделова) [2021 г., тв-шоу, юмор, сатира, развлекательный, WEB-DL 1080p]

Статистика раздачи
Размер:  1.82 GB   |    Зарегистрирован:  11 месяцев   |    Скачан:  13 раз

Полного источника не было: 28 дней

Сидов:  0  |  0 KB/s  ]   Личеров:  0  |  0 KB/s  ]

* - сиды/пиры с внешних источников

   
 
Автор Сообщение

FiNikola Пол:Муж

16-Окт-2021 13:12

Уральские пельмени. Азбука Уральских пельменей. «Ю» [эфир от 15.10]

Название: Уральские пельмени. Азбука Уральских пельменей. «Ю»
Год выпуска: 2021
Жанр: ТВ-шоу, юмор, сатира, развлекательный
Режиссёр: Константин Куц, Леонид Коновалов, Анастасия Гуделова
В ролях: Дмитрий Брекоткин, Сергей Ершов, Сергей Исаев, Сергей Калугин, Вячеслав Мясников, Александр Попов, Андрей Рожков, Дмитрий Соколов (V), Максим Ярица, Стефания-Марьяна Гурская, Илана Юрьева, Ксения Корнева

Описание:
То, что осталось за кадром, невошедшее, самые смешные ляпы - это Азбука Уральских пельменей. «Ю»



Страна: Россия
Студия: YBW Group, СТС
Продолжительность: 01:10:00
Язык: Русский

Дата эфира: 15 октября 2021 года (СТС)
Примечание: Без рекламы

Формат: MKV
Качество: WEB-DL 1080p
Видео: MPEG-4 AVC, 3500 кбит/с, 1920x1080
Звук: AC3, 2 ch, 192 Кбит/с
Общее
Уникальный идентификатор : 65522411935334380091650120300730773809 (0x314B285310ADB43E27C94D8F2E5FF131)
Полное имя : D:Uralskie.pelmeni.15.10.2021.WEB-DL.1080p.mkv
Формат : Matroska
Версия формата : Version 4
Размер файла : 1,82 Гбайт
Продолжительность : 1 ч. 10 м.
Общий поток : 3 688 Кбит/сек
Название фильма : Uralskie.pelmeni.15.10.2021.WEB-DL.1080p
Дата кодирования : UTC 2021-10-15 18:30:16
Программа кодирования : mkvmerge v62.0.0 ('Apollo') 64-bit
Библиотека кодирования : libebml v1.4.2 + libmatroska v1.6.4
Attachments : poster.jpg

Видео
Идентификатор : 1
Формат : AVC
Формат/Информация : Advanced Video Codec
Профиль формата : [email protected]
Настройки формата : CABAC / 5 Ref Frames
Параметр CABAC формата : Да
Параметр RefFrames формата : 5 кадров
Идентификатор кодека : V_MPEG4/ISO/AVC
Продолжительность : 1 ч. 10 м.
Битрейт : 3 494 Кбит/сек
Ширина : 1 920 пикселей
Высота : 1 080 пикселей
Соотношение сторон : 16:9
Режим частоты кадров : Постоянный
Частота кадров : 25,000 кадров/сек
Стандарт вещания : PAL
Цветовое пространство : YUV
Субдискретизация насыщенности : 4:2:0
Битовая глубина : 8 бит
Тип развёртки : Прогрессивная
Бит/(Пиксели*Кадры) : 0.067
Размер потока : 1,72 Гбайт (95%)
Default : Да
Forced : Нет
Цветовой диапазон : Limited
Основные цвета : BT.709
Характеристики трансфера : BT.709
Коэффициенты матрицы : BT.709

Аудио
Идентификатор : 2
Формат : AC-3
Формат/Информация : Audio Coding 3
Коммерческое название : Dolby Digital
Идентификатор кодека : A_AC3
Продолжительность : 1 ч. 10 м.
Вид битрейта : Постоянный
Битрейт : 192 Кбит/сек
Каналы : 2 канала
Channel layout : L R
Частота : 48,0 КГц
Частота кадров : 31,250 кадров/сек (1536 SPF)
Метод сжатия : С потерями
Размер потока : 97,0 Мбайт (5%)
Service kind : Complete Main
Default : Да
Forced : Нет

Этот торрент недоступен для скачивания без регистрации, однако доступен по публичной magnet-ссылке (источники с публичных трекеров). Перед использованием ссылки прочтите, пожалуйста Пользовательское соглашение, а также как можно дольше оставайтесь на раздаче! Для того, чтобы скачать сам торрент-файл (который видит больше источников), а также для того, чтобы поблагодарить релизера, вам необходимо зарегистрироваться. Если регистрироваться лень - вы можете также попробовать скачать релиз по нашим партнерским ссылкам ниже. Кроме того, зарегистрированным пользователям не показывается всплывающая реклама при скачивании.

[underver.se].t224831.torrent
Трекер: Зарегистрирован   [ 16.10.2021 13:12 ]  
Статус: проверено (by FiNikola at 16.10.2021 13:13)
Поблагодарили: пока никто не поблагодарил...
Тип торрента: публичный - доступные источники с открытых трекеров: 
Размер: 1.82 GB (занимает 0.42 DVDR, для записи нужно 1 болванка DVDR/RW)
 
 

Яндекс.Метрика powered by Sphinx


В Н И М А Н И Е
Сайт не распространяет и не хранит электронные версии произведений, а лишь бесплатно и без коммерческой выгоды (не требуя взамен платы,
SMS и т.д.) предоставляет доступ к создаваемому пользователями каталогу ссылок на торрент-файлы, которые содержат только списки хеш-сумм.
Убедительная просьба с жалобами обращаться напрямую к пользователю, разместившему торрент файл.

Вверх