Loading...
Error

(Jazz) Rene Marie - Live At Jazz Standard (2003) [FLAC (Tracks+.Cue), Lossless]

Статистика раздачи
Размер:  365 MB   |    Зарегистрирован:  11 месяцев   |    Скачан:  2 раза

Полного источника не было: 3 месяца 5 дней

Сидов:  0  |  0 KB/s  ]   Личеров:  0  |  0 KB/s  ]

* - сиды/пиры с внешних источников

   
 
Автор Сообщение

Бишеп Пол:Муж

17-Окт-2021 16:19

Rene Marie - Live At Jazz Standard

Жанр: Jazz
Год выпуска: 2003
Носитель: CD
Производитель диска: MAXJAZZ - MXJ 116
Аудиокодек: FLAC
Тип рипа: Tracks+.CUE
Битрейт аудио: lossless
Продолжительность: 01:10:10


Треклист:
01. Deed I Do (07:44)
02. Where or When (06:57)
03. It Might as Well Be Spring (06:13)
04. I Loves You Porgy (04:07)
05. Nature Boy (10:01)
06. Bolero/Suzanne (10:05)
07. Shelter in Your Arms (07:11)
08. A Foggy Day (06:25)
09. Paris on Ponce (07:02)
10. How Can I Keep from Singing? (04:23)

X Lossless Decoder version 20210101 (153.1) 

XLD extraction logfile from 2021-09-30 09:51:55 -0700

René Marie / Live at Jazz Standard

Used drive : HL-DT-ST DVDRAM GP65NB60 (revision PF00)
Media type : Pressed CD

Ripper mode : XLD Secure Ripper
Disable audio cache : OK for the drive with a cache less than 1375KiB
Make use of C2 pointers : NO
Read offset correction : 6
Max retry count : 20
Gap status : Analyzed, Appended (except HTOA)

TOC of the extracted CD
Track | Start | Length | Start sector | End sector
---------------------------------------------------------
1 | 00:00:00 | 07:44:14 | 0 | 34813
2 | 07:44:14 | 06:57:29 | 34814 | 66117
3 | 14:41:43 | 06:12:64 | 66118 | 94081
4 | 20:54:32 | 04:06:56 | 94082 | 112587
5 | 25:01:13 | 10:01:35 | 112588 | 157697
6 | 35:02:48 | 10:05:31 | 157698 | 203103
7 | 45:08:04 | 07:11:17 | 203104 | 235445
8 | 52:19:21 | 06:24:62 | 235446 | 264307
9 | 58:44:08 | 07:02:34 | 264308 | 295991
10 | 65:46:42 | 04:23:34 | 295992 | 315750

AccurateRip Summary (DiscID: 001b28bd-00d9c0e0-7e10720a)
Track 01 : OK (v1+v2, confidence 48/48)
Track 02 : OK (v1+v2, confidence 48/48)
Track 03 : OK (v1+v2, confidence 48/48)
Track 04 : OK (v1+v2, confidence 48/48)
Track 05 : OK (v1+v2, confidence 47/47)
Track 06 : OK (v1+v2, confidence 48/48)
Track 07 : OK (v1+v2, confidence 47/47)
Track 08 : OK (v1+v2, confidence 48/48)
Track 09 : OK (v1+v2, confidence 48/48)
Track 10 : OK (v1+v2, confidence 45/45)
->All tracks accurately ripped.

All Tracks
Album gain : -2.04 dB
Peak : 0.988861
Statistics
Read error : 0
Jitter error (maybe fixed) : 0
Retry sector count : 0
Damaged sector count : 0

Track 01
Filename : /Volumes/El Segundo/Rips/René Marie - Live at Jazz Standard (2003) [FLAC]/01 'Deed I Do.flac
Pre-gap length : 00:02:00

Track gain : -2.32 dB
Peak : 0.988861
CRC32 hash (test run) : 09DA1020
CRC32 hash : 09DA1020
CRC32 hash (skip zero) : AE980F84
AccurateRip v1 signature : 3400D4D7
AccurateRip v2 signature : 067837FD
->Accurately ripped (v1+v2, confidence 15+33/48)
Statistics
Read error : 0
Jitter error (maybe fixed) : 0
Retry sector count : 0
Damaged sector count : 0

Track 02
Filename : /Volumes/El Segundo/Rips/René Marie - Live at Jazz Standard (2003) [FLAC]/02 Where or When.flac
Pre-gap length : 00:27:30

Track gain : 1.32 dB
Peak : 0.913300
CRC32 hash (test run) : B4526D9A
CRC32 hash : B4526D9A
CRC32 hash (skip zero) : E0AC33FF
AccurateRip v1 signature : BB998A28
AccurateRip v2 signature : DCC8F2C5
->Accurately ripped (v1+v2, confidence 15+33/48)
Statistics
Read error : 0
Jitter error (maybe fixed) : 0
Retry sector count : 0
Damaged sector count : 0

Track 03
Filename : /Volumes/El Segundo/Rips/René Marie - Live at Jazz Standard (2003) [FLAC]/03 It Might As Well Be Spring.flac
Pre-gap length : 00:00:45

Track gain : -2.33 dB
Peak : 0.988800
CRC32 hash (test run) : 852B9463
CRC32 hash : 852B9463
CRC32 hash (skip zero) : 2D19B1F7
AccurateRip v1 signature : 5B2AEA9A
AccurateRip v2 signature : 6435F34C
->Accurately ripped (v1+v2, confidence 15+33/48)
Statistics
Read error : 0
Jitter error (maybe fixed) : 0
Retry sector count : 0
Damaged sector count : 0

Track 04
Filename : /Volumes/El Segundo/Rips/René Marie - Live at Jazz Standard (2003) [FLAC]/04 I Loves You Porgy.flac
Pre-gap length : 00:02:05

Track gain : 0.86 dB
Peak : 0.925659
CRC32 hash (test run) : 6183B4E1
CRC32 hash : 6183B4E1
CRC32 hash (skip zero) : 5AA06F99
AccurateRip v1 signature : F3A7688D
AccurateRip v2 signature : 441CD1C4
->Accurately ripped (v1+v2, confidence 15+33/48)
Statistics
Read error : 0
Jitter error (maybe fixed) : 0
Retry sector count : 0
Damaged sector count : 0

Track 05
Filename : /Volumes/El Segundo/Rips/René Marie - Live at Jazz Standard (2003) [FLAC]/05 Nature Boy.flac
Pre-gap length : 00:02:65

Track gain : -0.35 dB
Peak : 0.988831
CRC32 hash (test run) : F91CF51A
CRC32 hash : F91CF51A
CRC32 hash (skip zero) : 5DBD6A16
AccurateRip v1 signature : 245AF2FD
AccurateRip v2 signature : B84C5CC7
->Accurately ripped (v1+v2, confidence 13+34/47)
Statistics
Read error : 0
Jitter error (maybe fixed) : 0
Retry sector count : 0
Damaged sector count : 0

Track 06
Filename : /Volumes/El Segundo/Rips/René Marie - Live at Jazz Standard (2003) [FLAC]/06 Bolero/Suzanne.flac
Pre-gap length : 00:35:70

Track gain : -3.63 dB
Peak : 0.988739
CRC32 hash (test run) : 574D066A
CRC32 hash : 574D066A
CRC32 hash (skip zero) : A22AB81F
AccurateRip v1 signature : 3D28A02F
AccurateRip v2 signature : 1582A340
->Accurately ripped (v1+v2, confidence 15+33/48)
Statistics
Read error : 0
Jitter error (maybe fixed) : 0
Retry sector count : 0
Damaged sector count : 0

Track 07
Filename : /Volumes/El Segundo/Rips/René Marie - Live at Jazz Standard (2003) [FLAC]/07 Shelter in Your Arms.flac
Pre-gap length : 00:04:55

Track gain : 0.53 dB
Peak : 0.815735
CRC32 hash (test run) : 187414B4
CRC32 hash : 187414B4
CRC32 hash (skip zero) : 6D9516FE
AccurateRip v1 signature : 5749D95B
AccurateRip v2 signature : 0DE9FC70
->Accurately ripped (v1+v2, confidence 15+32/47)
Statistics
Read error : 0
Jitter error (maybe fixed) : 0
Retry sector count : 0
Damaged sector count : 0

Track 08
Filename : /Volumes/El Segundo/Rips/René Marie - Live at Jazz Standard (2003) [FLAC]/08 A Foggy Day.flac
Pre-gap length : 00:00:18

Track gain : -3.39 dB
Peak : 0.988831
CRC32 hash (test run) : 1849B2CE
CRC32 hash : 1849B2CE
CRC32 hash (skip zero) : 37E3D6BB
AccurateRip v1 signature : 67A72076
AccurateRip v2 signature : 1900ECB4
->Accurately ripped (v1+v2, confidence 15+33/48)
Statistics
Read error : 0
Jitter error (maybe fixed) : 0
Retry sector count : 0
Damaged sector count : 0

Track 09
Filename : /Volumes/El Segundo/Rips/René Marie - Live at Jazz Standard (2003) [FLAC]/09 Paris on Ponce.flac
Pre-gap length : 00:02:47

Track gain : -2.52 dB
Peak : 0.988770
CRC32 hash (test run) : E9C34DF1
CRC32 hash : E9C34DF1
CRC32 hash (skip zero) : DDC336E2
AccurateRip v1 signature : 1FFAE168
AccurateRip v2 signature : 3FF39529
->Accurately ripped (v1+v2, confidence 15+33/48)
Statistics
Read error : 0
Jitter error (maybe fixed) : 0
Retry sector count : 0
Damaged sector count : 0

Track 10
Filename : /Volumes/El Segundo/Rips/René Marie - Live at Jazz Standard (2003) [FLAC]/10 How Can I Keep from Singing_.flac
Pre-gap length : 00:10:50

Track gain : -1.17 dB
Peak : 0.931976
CRC32 hash (test run) : 6F9C619C
CRC32 hash : 6F9C619C
CRC32 hash (skip zero) : FCF1EBFB
AccurateRip v1 signature : D507FE7E
AccurateRip v2 signature : 8D201E44
->Accurately ripped (v1+v2, confidence 12+33/45)
Statistics
Read error : 0
Jitter error (maybe fixed) : 0
Retry sector count : 0
Damaged sector count : 0

No errors occurred

End of status report

-----BEGIN XLD SIGNATURE-----
2y_aXhB2OYtj7.14orDhx5rJ2dphggE0SnFFnEJfNktdBvSwCYuyUE1aHj2z2_ym3LKeu675sJSfe4TY68PFl3hp0V5Glfc0_5nIhte
-----END XLD SIGNATURE-----
TITLE "Live at Jazz Standard" 
PERFORMER "Rene Marie"
REM GENRE "Jazz"
REM DATE "2003"
REM DISCID 7E10720A
REM REPLAYGAIN_ALBUM_GAIN -2.04 dB
REM REPLAYGAIN_ALBUM_PEAK 0.988861
FILE "01 - 'Deed I Do.flac" WAVE
TRACK 01 AUDIO
TITLE "'Deed I Do"
REM REPLAYGAIN_TRACK_GAIN -2.32 dB
REM REPLAYGAIN_TRACK_PEAK 0.988861
INDEX 01 00:00:00
TRACK 02 AUDIO
TITLE "Where or When"
REM REPLAYGAIN_TRACK_GAIN 1.32 dB
REM REPLAYGAIN_TRACK_PEAK 0.913300
INDEX 00 07:16:59
FILE "02 - Where or When.flac" WAVE
INDEX 01 00:00:00
TRACK 03 AUDIO
TITLE "It Might as Well Be Spring"
REM REPLAYGAIN_TRACK_GAIN -2.33 dB
REM REPLAYGAIN_TRACK_PEAK 0.988800
INDEX 00 06:56:59
FILE "03 - It Might as Well Be Spring.flac" WAVE
INDEX 01 00:00:00
TRACK 04 AUDIO
TITLE "I Loves You Porgy"
REM REPLAYGAIN_TRACK_GAIN 0.86 dB
REM REPLAYGAIN_TRACK_PEAK 0.925659
INDEX 00 06:10:59
FILE "04 - I Loves You Porgy.flac" WAVE
INDEX 01 00:00:00
TRACK 05 AUDIO
TITLE "Nature Boy"
REM REPLAYGAIN_TRACK_GAIN -0.35 dB
REM REPLAYGAIN_TRACK_PEAK 0.988831
INDEX 00 04:03:66
FILE "05 - Nature Boy.flac" WAVE
INDEX 01 00:00:00
TRACK 06 AUDIO
TITLE "Bolero/Suzanne"
REM REPLAYGAIN_TRACK_GAIN -3.63 dB
REM REPLAYGAIN_TRACK_PEAK 0.988739
INDEX 00 09:25:40
FILE "06 - Bolero,Suzanne.flac" WAVE
INDEX 01 00:00:00
TRACK 07 AUDIO
TITLE "Shelter in Your Arms"
REM REPLAYGAIN_TRACK_GAIN 0.53 dB
REM REPLAYGAIN_TRACK_PEAK 0.815735
INDEX 00 10:00:51
FILE "07 - Shelter in Your Arms.flac" WAVE
INDEX 01 00:00:00
TRACK 08 AUDIO
TITLE "A Foggy Day"
REM REPLAYGAIN_TRACK_GAIN -3.39 dB
REM REPLAYGAIN_TRACK_PEAK 0.988831
INDEX 00 07:10:74
FILE "08 - A Foggy Day.flac" WAVE
INDEX 01 00:00:00
TRACK 09 AUDIO
TITLE "Paris on Ponce"
REM REPLAYGAIN_TRACK_GAIN -2.52 dB
REM REPLAYGAIN_TRACK_PEAK 0.988770
INDEX 00 06:22:15
FILE "09 - Paris on Ponce.flac" WAVE
INDEX 01 00:00:00
TRACK 10 AUDIO
TITLE "How Can I Keep from Singing?"
REM REPLAYGAIN_TRACK_GAIN -1.17 dB
REM REPLAYGAIN_TRACK_PEAK 0.931976
INDEX 00 06:51:59
FILE "10 - How Can I Keep from Singing.flac" WAVE
INDEX 01 00:00:00

Этот торрент недоступен для скачивания без регистрации, однако доступен по публичной magnet-ссылке (источники с публичных трекеров). Перед использованием ссылки прочтите, пожалуйста Пользовательское соглашение, а также как можно дольше оставайтесь на раздаче! Для того, чтобы скачать сам торрент-файл (который видит больше источников), а также для того, чтобы поблагодарить релизера, вам необходимо зарегистрироваться. Если регистрироваться лень - вы можете также попробовать скачать релиз по нашим партнерским ссылкам ниже. Кроме того, зарегистрированным пользователям не показывается всплывающая реклама при скачивании.

[underver.se].t224912.torrent
Трекер: Зарегистрирован   [ 17.10.2021 16:19 ]  
Статус: проверено (by Бишеп at 17.10.2021 16:19)
Поблагодарили: пока никто не поблагодарил...
Тип торрента: публичный - доступные источники с открытых трекеров: 
Размер: 365 MB (занимает 0.08 DVDR, для записи нужно 1 болванка DVDR/RW)
 
 

Яндекс.Метрика powered by Sphinx


В Н И М А Н И Е
Сайт не распространяет и не хранит электронные версии произведений, а лишь бесплатно и без коммерческой выгоды (не требуя взамен платы,
SMS и т.д.) предоставляет доступ к создаваемому пользователями каталогу ссылок на торрент-файлы, которые содержат только списки хеш-сумм.
Убедительная просьба с жалобами обращаться напрямую к пользователю, разместившему торрент файл.

Вверх