Loading...
Error

(Crossover Jazz, Piano Jazz) Dave Grusin - Subways Are for Sleeping & Piano, Strings and Moonlight (2021) [FLAC (Tracks+.Cue), Lossless]

Статистика раздачи
Размер:  460 MB   |    Зарегистрирован:  11 месяцев   |    Скачан:  6 раз
Сидов:  1  |  0 KB/s  ]   Личеров:  0  |  0 KB/s  ]

* - сиды/пиры с внешних источников

   
 
Автор Сообщение

Бишеп Пол:Муж

18-Окт-2021 15:10

Dave Grusin - Subways Are for Sleeping & Piano, Strings and Moonlight

Жанр: Crossover Jazz, Piano Jazz
Год выпуска: 2021
Носитель: CD
Производитель диска: American Jazz Classics - 90296
Аудиокодек: FLAC
Тип рипа: Tracks+.CUE
Битрейт аудио: lossless
Продолжительность: 01:18:28


Треклист:
01. I'm Just Taking My Time (04:29)
02. Ride Through the Night (04:33)
03. Now I Have Someone (05:34)
04. When You Help a Friend Out (04:38)
05. Getting Married (06:35)
06. How Can You Describe a Face? (04:12)
07. Who Knows What Might Have Been? (03:26)
08. I Said It and I'm Glad (03:17)
09. Come Once in a Lifetime (03:36)
10. Love Is Here to Stay (03:03)
11. Fly Me to the Moon (02:48)
12. My Funny Valentine (03:43)
13. What Is This Thing Called Love? (02:12)
14. The More I See You (04:05)
15. Autumn Leaves (02:55)
16. What Is There to Say? (03:50)
17. Sara Jane (04:14)
18. The Party's Over (02:50)
19. Here's That Rainy Day (03:31)
20. You Don't Know What Love Is (02:45)
21. When Your Lover Has Gone (02:13)

Exact Audio Copy V1.3 from 2. September 2016 

EAC extraction logfile from 16. September 2021, 15:28

Dave Grusin / Subways Are For Sleeping + Piano, Strings And Moonlight

Used drive : HL-DT-STBD-RE BH16NS55 Adapter: 1 ID: 0

Read mode : Secure
Utilize accurate stream : Yes
Defeat audio cache : Yes
Make use of C2 pointers : No

Read offset correction : 6
Overread into Lead-In and Lead-Out : No
Fill up missing offset samples with silence : Yes
Delete leading and trailing silent blocks : No
Null samples used in CRC calculations : Yes
Used interface : Native Win32 interface for Win NT & 2000
Gap handling : Appended to previous track

Used output format : User Defined Encoder
Selected bitrate : 1024 kBit/s
Quality : High
Add ID3 tag : No
Command line compressor : C:\Program Files (x86)\Exact Audio Copy\Flac\flac.exe
Additional command line options : -8 -V -T "ARTIST=%artist%" -T "TITLE=%title%" -T "ALBUM=%albumtitle%" -T "DATE=%year%" -T "TRACKNUMBER=%tracknr%" -T "GENRE=%genre%" -T "PERFORMER=%albuminterpret%" -T "COMPOSER=%composer%" %haslyrics%--tag-from-file=LYRICS="%lyricsfile%"%haslyrics% -T "ALBUMARTIST=%albumartist%" -T "DISCNUMBER=%cdnumber%" -T "TOTALDISCS=%totalcds%" -T "TOTALTRACKS=%numtracks%" -T "COMMENT=%comment%" %source% -o %dest%

TOC of the extracted CD

Track | Start | Length | Start sector | End sector
---------------------------------------------------------
1 | 0:00.00 | 4:28.38 | 0 | 20137
2 | 4:28.38 | 4:32.42 | 20138 | 40579
3 | 9:01.05 | 5:34.31 | 40580 | 65660
4 | 14:35.36 | 4:38.09 | 65661 | 86519
5 | 19:13.45 | 6:34.69 | 86520 | 116138
6 | 25:48.39 | 4:11.47 | 116139 | 135010
7 | 30:00.11 | 3:25.47 | 135011 | 150432
8 | 33:25.58 | 3:17.09 | 150433 | 165216
9 | 36:42.67 | 3:36.28 | 165217 | 181444
10 | 40:19.20 | 3:03.05 | 181445 | 195174
11 | 43:22.25 | 2:47.40 | 195175 | 207739
12 | 46:09.65 | 3:43.26 | 207740 | 224490
13 | 49:53.16 | 2:12.16 | 224491 | 234406
14 | 52:05.32 | 4:04.50 | 234407 | 252756
15 | 56:10.07 | 2:55.09 | 252757 | 265890
16 | 59:05.16 | 3:49.70 | 265891 | 283135
17 | 62:55.11 | 4:14.32 | 283136 | 302217
18 | 67:09.43 | 2:50.21 | 302218 | 314988
19 | 69:59.64 | 3:30.38 | 314989 | 330776
20 | 73:30.27 | 2:44.72 | 330777 | 343148
21 | 76:15.24 | 2:12.38 | 343149 | 353086

Track 1

Filename F:\#EAC wav+flac\#New\Dave Gruisin - Subways Are For Sleeping ; Piano, Strings And Moonlight\01. Dave Grusin - I'm Just Taking Time.wav

Pre-gap length 0:00:02.00

Peak level 91.2 %
Extraction speed 5.0 X
Track quality 100.0 %
Test CRC 29D3F328
Copy CRC 29D3F328
Accurately ripped (confidence 1) [D218EB5A] (AR v2)
Copy OK

Track 2

Filename F:\#EAC wav+flac\#New\Dave Gruisin - Subways Are For Sleeping ; Piano, Strings And Moonlight\02. Dave Grusin - Ride Through The Night.wav

Pre-gap length 0:00:02.74

Peak level 91.2 %
Extraction speed 4.6 X
Track quality 99.9 %
Test CRC B3EA57C1
Copy CRC B3EA57C1
Accurately ripped (confidence 1) [04B495BE] (AR v2)
Copy OK

Track 3

Filename F:\#EAC wav+flac\#New\Dave Gruisin - Subways Are For Sleeping ; Piano, Strings And Moonlight\03. Dave Grusin - Now I Have Someone.wav

Pre-gap length 0:00:02.74

Peak level 91.2 %
Extraction speed 6.1 X
Track quality 100.0 %
Test CRC C3A533B5
Copy CRC C3A533B5
Accurately ripped (confidence 1) [8318D9A7] (AR v2)
Copy OK

Track 4

Filename F:\#EAC wav+flac\#New\Dave Gruisin - Subways Are For Sleeping ; Piano, Strings And Moonlight\04. Dave Grusin - When You Help A Friend Out.wav

Pre-gap length 0:00:02.74

Peak level 91.2 %
Extraction speed 6.4 X
Track quality 100.0 %
Test CRC B9F9D842
Copy CRC B9F9D842
Accurately ripped (confidence 1) [EB38E32D] (AR v2)
Copy OK

Track 5

Filename F:\#EAC wav+flac\#New\Dave Gruisin - Subways Are For Sleeping ; Piano, Strings And Moonlight\05. Dave Grusin - Getting Married.wav

Pre-gap length 0:00:02.74

Peak level 91.2 %
Extraction speed 7.1 X
Track quality 100.0 %
Test CRC F346B963
Copy CRC F346B963
Accurately ripped (confidence 1) [171CA3AA] (AR v2)
Copy OK

Track 6

Filename F:\#EAC wav+flac\#New\Dave Gruisin - Subways Are For Sleeping ; Piano, Strings And Moonlight\06. Dave Grusin - How Can You Describe A Face.wav

Pre-gap length 0:00:02.74

Peak level 91.2 %
Extraction speed 6.0 X
Track quality 99.9 %
Test CRC 5D957E4E
Copy CRC 5D957E4E
Accurately ripped (confidence 1) [4DE9046E] (AR v2)
Copy OK

Track 7

Filename F:\#EAC wav+flac\#New\Dave Gruisin - Subways Are For Sleeping ; Piano, Strings And Moonlight\07. Dave Grusin - Who Knows What You Might Have Been.wav

Pre-gap length 0:00:02.74

Peak level 91.2 %
Extraction speed 7.3 X
Track quality 100.0 %
Test CRC D754AE13
Copy CRC D754AE13
Accurately ripped (confidence 1) [7C672133] (AR v2)
Copy OK

Track 8

Filename F:\#EAC wav+flac\#New\Dave Gruisin - Subways Are For Sleeping ; Piano, Strings And Moonlight\08. Dave Grusin - I Said It And I'm Glad.wav

Pre-gap length 0:00:02.74

Peak level 91.2 %
Extraction speed 7.5 X
Track quality 100.0 %
Test CRC 79F7FDBA
Copy CRC 79F7FDBA
Accurately ripped (confidence 1) [A8DE70BE] (AR v2)
Copy OK

Track 9

Filename F:\#EAC wav+flac\#New\Dave Gruisin - Subways Are For Sleeping ; Piano, Strings And Moonlight\09. Dave Grusin - Come Once In A Lifetime.wav

Pre-gap length 0:00:02.74

Peak level 91.2 %
Extraction speed 7.7 X
Track quality 100.0 %
Test CRC 16888E39
Copy CRC 16888E39
Accurately ripped (confidence 1) [B9859542] (AR v2)
Copy OK

Track 10

Filename F:\#EAC wav+flac\#New\Dave Gruisin - Subways Are For Sleeping ; Piano, Strings And Moonlight\10. Dave Grusin - Love Is Here To Stay.wav

Pre-gap length 0:00:02.74

Peak level 86.7 %
Extraction speed 7.8 X
Track quality 100.0 %
Test CRC 29C3D2DA
Copy CRC 29C3D2DA
Accurately ripped (confidence 1) [A257CB23] (AR v2)
Copy OK

Track 11

Filename F:\#EAC wav+flac\#New\Dave Gruisin - Subways Are For Sleeping ; Piano, Strings And Moonlight\11. Dave Grusin - Fly Me To The Moon.wav

Pre-gap length 0:00:02.74

Peak level 86.7 %
Extraction speed 7.7 X
Track quality 100.0 %
Test CRC 42B83AF6
Copy CRC 42B83AF6
Accurately ripped (confidence 1) [CDBC88EC] (AR v2)
Copy OK

Track 12

Filename F:\#EAC wav+flac\#New\Dave Gruisin - Subways Are For Sleeping ; Piano, Strings And Moonlight\12. Dave Grusin - My Funny Valentine.wav

Pre-gap length 0:00:02.74

Peak level 86.7 %
Extraction speed 8.4 X
Track quality 100.0 %
Test CRC 36CA53A8
Copy CRC 36CA53A8
Accurately ripped (confidence 1) [E938F3BB] (AR v2)
Copy OK

Track 13

Filename F:\#EAC wav+flac\#New\Dave Gruisin - Subways Are For Sleeping ; Piano, Strings And Moonlight\13. Dave Grusin - What Is This Thing Called Love.wav

Pre-gap length 0:00:02.74

Peak level 86.7 %
Extraction speed 7.9 X
Track quality 100.0 %
Test CRC 5C3A4674
Copy CRC 5C3A4674
Accurately ripped (confidence 1) [27F67546] (AR v2)
Copy OK

Track 14

Filename F:\#EAC wav+flac\#New\Dave Gruisin - Subways Are For Sleeping ; Piano, Strings And Moonlight\14. Dave Grusin - The More I See You.wav

Pre-gap length 0:00:02.74

Peak level 86.7 %
Extraction speed 7.2 X
Track quality 99.9 %
Test CRC 309DBFB5
Copy CRC 309DBFB5
Accurately ripped (confidence 1) [DEF6BE8A] (AR v2)
Copy OK

Track 15

Filename F:\#EAC wav+flac\#New\Dave Gruisin - Subways Are For Sleeping ; Piano, Strings And Moonlight\15. Dave Grusin - Autumn Leaves.wav

Pre-gap length 0:00:02.74

Peak level 86.7 %
Extraction speed 7.6 X
Track quality 100.0 %
Test CRC 32FE5EEF
Copy CRC 32FE5EEF
Accurately ripped (confidence 1) [CDE53DB4] (AR v2)
Copy OK

Track 16

Filename F:\#EAC wav+flac\#New\Dave Gruisin - Subways Are For Sleeping ; Piano, Strings And Moonlight\16. Dave Grusin - What Is There To Say.wav

Pre-gap length 0:00:02.74

Peak level 86.7 %
Extraction speed 9.1 X
Track quality 100.0 %
Test CRC F9C4A2B4
Copy CRC F9C4A2B4
Accurately ripped (confidence 1) [2654D6EF] (AR v2)
Copy OK

Track 17

Filename F:\#EAC wav+flac\#New\Dave Gruisin - Subways Are For Sleeping ; Piano, Strings And Moonlight\17. Dave Grusin - Sara Jane.wav

Pre-gap length 0:00:02.74

Peak level 86.7 %
Extraction speed 9.3 X
Track quality 100.0 %
Test CRC 58866AA6
Copy CRC 58866AA6
Accurately ripped (confidence 1) [DE5B49D1] (AR v2)
Copy OK

Track 18

Filename F:\#EAC wav+flac\#New\Dave Gruisin - Subways Are For Sleeping ; Piano, Strings And Moonlight\18. Dave Grusin - The Party's Over.wav

Pre-gap length 0:00:02.74

Peak level 86.7 %
Extraction speed 7.0 X
Track quality 99.9 %
Test CRC FFE20276
Copy CRC FFE20276
Accurately ripped (confidence 1) [21C9E3CE] (AR v2)
Copy OK

Track 19

Filename F:\#EAC wav+flac\#New\Dave Gruisin - Subways Are For Sleeping ; Piano, Strings And Moonlight\19. Dave Grusin - Here's That Rainy Day.wav

Pre-gap length 0:00:02.74

Peak level 86.7 %
Extraction speed 7.6 X
Track quality 99.9 %
Test CRC 7196D93C
Copy CRC 7196D93C
Accurately ripped (confidence 1) [4DC73C9E] (AR v2)
Copy OK

Track 20

Filename F:\#EAC wav+flac\#New\Dave Gruisin - Subways Are For Sleeping ; Piano, Strings And Moonlight\20. Dave Grusin - You Don't Know What Love Is.wav

Pre-gap length 0:00:02.74

Peak level 86.7 %
Extraction speed 9.3 X
Track quality 100.0 %
Test CRC ADEE8150
Copy CRC ADEE8150
Accurately ripped (confidence 1) [D926C625] (AR v2)
Copy OK

Track 21

Filename F:\#EAC wav+flac\#New\Dave Gruisin - Subways Are For Sleeping ; Piano, Strings And Moonlight\21. Dave Grusin - When Your Lover Has Gone.wav

Pre-gap length 0:00:02.74

Peak level 86.7 %
Extraction speed 6.1 X
Track quality 99.9 %
Test CRC 0B488B55
Copy CRC 0B488B55
Accurately ripped (confidence 1) [DE2C29C7] (AR v2)
Copy OK

All tracks accurately ripped

No errors occurred

End of status report

---- CUETools DB Plugin V2.1.6

[CTDB TOCID: apM5HWKFJuJagGJSV1AFmOKs1Wk-] found
Submit result: apM5HWKFJuJagGJSV1AFmOKs1Wk- has been confirmed
Track | CTDB Status
1 | (1/1) Accurately ripped
2 | (1/1) Accurately ripped
3 | (1/1) Accurately ripped
4 | (1/1) Accurately ripped
5 | (1/1) Accurately ripped
6 | (1/1) Accurately ripped
7 | (1/1) Accurately ripped
8 | (1/1) Accurately ripped
9 | (1/1) Accurately ripped
10 | (1/1) Accurately ripped
11 | (1/1) Accurately ripped
12 | (1/1) Accurately ripped
13 | (1/1) Accurately ripped
14 | (1/1) Accurately ripped
15 | (1/1) Accurately ripped
16 | (1/1) Accurately ripped
17 | (1/1) Accurately ripped
18 | (1/1) Accurately ripped
19 | (1/1) Accurately ripped
20 | (1/1) Accurately ripped
21 | (1/1) Accurately ripped

==== Log checksum 8B2925DD1BF85D6118A1919C6342F69BE8051922F1B097E0B8AA801EA5830AF0 ====
REM GENRE Jazz 
REM DATE 2021
REM DISCID 18126315
REM COMMENT "ExactAudioCopy v1.3"
PERFORMER "Dave Grusin"
TITLE "Subways Are for Sleeping, Piano, Strings and Moonlight"
FILE "01 - I'm Just Taking My Time.wav" WAVE
TRACK 01 AUDIO
TITLE "I'm Just Taking My Time"
PERFORMER "Dave Grusin"
INDEX 01 00:00:00
TRACK 02 AUDIO
TITLE "Ride Through the Night"
PERFORMER "Dave Grusin"
INDEX 00 04:25:57
FILE "02 - Ride Through the Night.wav" WAVE
INDEX 01 00:00:00
TRACK 03 AUDIO
TITLE "Now I Have Someone"
PERFORMER "Dave Grusin"
INDEX 00 04:29:61
FILE "03 - Now I Have Someone.wav" WAVE
INDEX 01 00:00:00
TRACK 04 AUDIO
TITLE "When You Help a Friend Out"
PERFORMER "Dave Grusin"
INDEX 00 05:31:50
FILE "04 - When You Help a Friend Out.wav" WAVE
INDEX 01 00:00:00
TRACK 05 AUDIO
TITLE "Getting Married"
PERFORMER "Dave Grusin"
INDEX 00 04:35:28
FILE "05 - Getting Married.wav" WAVE
INDEX 01 00:00:00
TRACK 06 AUDIO
TITLE "How Can You Describe a Face?"
PERFORMER "Dave Grusin"
INDEX 00 06:32:13
FILE "06 - How Can You Describe a Face.wav" WAVE
INDEX 01 00:00:00
TRACK 07 AUDIO
TITLE "Who Knows What Might Have Been?"
PERFORMER "Dave Grusin"
INDEX 00 04:08:66
FILE "07 - Who Knows What Might Have Been.wav" WAVE
INDEX 01 00:00:00
TRACK 08 AUDIO
TITLE "I Said It and I'm Glad"
PERFORMER "Dave Grusin"
INDEX 00 03:22:66
FILE "08 - I Said It and I'm Glad.wav" WAVE
INDEX 01 00:00:00
TRACK 09 AUDIO
TITLE "Come Once in a Lifetime"
PERFORMER "Dave Grusin"
INDEX 00 03:14:28
FILE "09 - Come Once in a Lifetime.wav" WAVE
INDEX 01 00:00:00
TRACK 10 AUDIO
TITLE "Love Is Here to Stay"
PERFORMER "Dave Grusin"
INDEX 00 03:33:47
FILE "10 - Love Is Here to Stay.wav" WAVE
INDEX 01 00:00:00
TRACK 11 AUDIO
TITLE "Fly Me to the Moon"
PERFORMER "Dave Grusin"
INDEX 00 03:00:24
FILE "11 - Fly Me to the Moon.wav" WAVE
INDEX 01 00:00:00
TRACK 12 AUDIO
TITLE "My Funny Valentine"
PERFORMER "Dave Grusin"
INDEX 00 02:44:59
FILE "12 - My Funny Valentine.wav" WAVE
INDEX 01 00:00:00
TRACK 13 AUDIO
TITLE "What Is This Thing Called Love?"
PERFORMER "Dave Grusin"
INDEX 00 03:40:45
FILE "13 - What Is This Thing Called Love.wav" WAVE
INDEX 01 00:00:00
TRACK 14 AUDIO
TITLE "The More I See You"
PERFORMER "Dave Grusin"
INDEX 00 02:09:35
FILE "14 - The More I See You.wav" WAVE
INDEX 01 00:00:00
TRACK 15 AUDIO
TITLE "Autumn Leaves"
PERFORMER "Dave Grusin"
INDEX 00 04:01:69
FILE "15 - Autumn Leaves.wav" WAVE
INDEX 01 00:00:00
TRACK 16 AUDIO
TITLE "What Is There To Say?"
PERFORMER "Dave Grusin"
INDEX 00 02:52:28
FILE "16 - What Is There To Say.wav" WAVE
INDEX 01 00:00:00
TRACK 17 AUDIO
TITLE "Sara Jane"
PERFORMER "Dave Grusin"
INDEX 00 03:47:14
FILE "17 - Sara Jane.wav" WAVE
INDEX 01 00:00:00
TRACK 18 AUDIO
TITLE "The Party's Over"
PERFORMER "Dave Grusin"
INDEX 00 04:11:51
FILE "18 - The Party's Over.wav" WAVE
INDEX 01 00:00:00
TRACK 19 AUDIO
TITLE "Here's That Rainy Day"
PERFORMER "Dave Grusin"
INDEX 00 02:47:40
FILE "19 - Here's That Rainy Day.wav" WAVE
INDEX 01 00:00:00
TRACK 20 AUDIO
TITLE "You Don't Know What Love Is"
PERFORMER "Dave Grusin"
INDEX 00 03:27:57
FILE "20 - You Don't Know What Love Is.wav" WAVE
INDEX 01 00:00:00
TRACK 21 AUDIO
TITLE "When Your Lover Has Gone"
PERFORMER "Dave Grusin"
INDEX 00 02:42:16
FILE "21 - When Your Lover Has Gone.wav" WAVE
INDEX 01 00:00:00

Этот торрент недоступен для скачивания без регистрации, однако доступен по публичной magnet-ссылке (источники с публичных трекеров). Перед использованием ссылки прочтите, пожалуйста Пользовательское соглашение, а также как можно дольше оставайтесь на раздаче! Для того, чтобы скачать сам торрент-файл (который видит больше источников), а также для того, чтобы поблагодарить релизера, вам необходимо зарегистрироваться. Если регистрироваться лень - вы можете также попробовать скачать релиз по нашим партнерским ссылкам ниже. Кроме того, зарегистрированным пользователям не показывается всплывающая реклама при скачивании.

[underver.se].t224951.torrent
Трекер: Зарегистрирован   [ 18.10.2021 15:10 ]  
Статус: проверено (by Бишеп at 18.10.2021 15:10)
Поблагодарили: пока никто не поблагодарил...
Тип торрента: публичный - доступные источники с открытых трекеров: 
Размер: 460 MB (занимает 0.1 DVDR, для записи нужно 1 болванка DVDR/RW)
 
 

Яндекс.Метрика powered by Sphinx


В Н И М А Н И Е
Сайт не распространяет и не хранит электронные версии произведений, а лишь бесплатно и без коммерческой выгоды (не требуя взамен платы,
SMS и т.д.) предоставляет доступ к создаваемому пользователями каталогу ссылок на торрент-файлы, которые содержат только списки хеш-сумм.
Убедительная просьба с жалобами обращаться напрямую к пользователю, разместившему торрент файл.

Вверх