Loading...
Error

(House, Euro House) Daisy Dee - The Best Of Daisy Dee [CD] (1995) [FLAC (image+.cue), lossless]

Статистика раздачи
Размер:  447 MB   |    Зарегистрирован:  11 месяцев   |    Скачан:  2 раза

Полного источника не было: 4 месяца 1 день

Сидов:  0  |  0 KB/s  ]   Личеров:  0  |  0 KB/s  ]

* - сиды/пиры с внешних источников

   
 
Автор Сообщение

Renesans Пол:Муж

19-Окт-2021 14:56

Daisy Dee / The Best Of Daisy Dee

Жанр: House, Euro House
Носитель: CD
Страна-производитель диска (релиза): Germany
Год издания: 1995
Издатель (лейбл): Dance Street
Номер по каталогу: DST 50353-2
Аудиокодек: FLAC (*.flac)
Тип рипа: image+.cue
Битрейт аудио: lossless
Продолжительность: 01:03:52
Источник (релизер): ANNDYSS
Наличие сканов в содержимом раздачи: нет
01. Crazy ('95 Wicked Mix) 5:41
02. Somebody Real (Vocal Trippy Mix) 5:46
03. Back It Up (Club Mix) 4:45
04. Pump It Up All The Way (LP Version Remix) 4:30
05. I Got You (7" Alternative) 3:58
06. I'm Real 3:25
07. What Is Dat 5:12
08. Walking On That Side 4:11
09. Let It Out 5:42
10. It's Gonna Be Alright (Radio Edit) 4:22
11. Crazy (Original '91 Chicago Edit) 3:48
12. Anything For You 4:38
13. Cool It 4:24
14. This Beat Is Technotronic (Radio Version) 3:36
Exact Audio Copy V1.3 from 2. September 2016

Отчёт EAC об извлечении, выполненном 9. января 2019, 20:06

Daisy Dee / The Best Of Daisy Dee

Дисковод: _NEC DVD_RW ND-3520A Adapter: 1 ID: 0

Режим чтения : Достоверность
Использование точного потока : Да
Отключение кэша аудио : Да
Использование указателей C2 : Нет

Коррекция смещения при чтении : 48
Способность читать области Lead-in и Lead-out : Нет
Заполнение пропущенных сэмплов тишиной : Да
Удаление блоков с тишиной в начале и конце : Нет
При вычислениях CRC использовались нулевые сэмплы : Да
Интерфейс : Встроенный Win32-интерфейс для Win NT/2000

Выходной формат : Пользовательский кодировщик
Выбранный битрейт : 1024 kBit/s
Качество : Высокий
Добавление ID3-тега : Нет
Утилита сжатия : C:\Program Files\Exact Audio Copy\FLAC\FLAC.EXE
Дополнительные параметры : -6 -V -T "ARTIST=%artist%" -T "TITLE=%title%" -T "ALBUM=%albumtitle%" -T "DATE=%year%" -T "TRACKNUMBER=%tracknr%" -T "GENRE=%genre%" -T "COMMENT=%comment%" -T "BAND=%albuminterpret%" -T "ALBUMARTIST=%albuminterpret%" -T "COMPOSER=%composer%" %haslyrics%--tag-from-file=LYRICS="%lyricsfile%"%haslyrics% -T "DISCNUMBER=%cdnumber%" -T "TOTALDISCS=%totalcds%" -T "TOTALTRACKS=%numtracks%" %hascover%--picture="%coverfile%"%hascover% %source% -o %dest%

TOC извлечённого CD

Трек | Старт | Длительность | Начальный сектор | Конечный сектор
---------------------------------------------------------------------
1 | 0:00.00 | 5:44.28 | 0 | 25827
2 | 5:44.28 | 5:48.35 | 25828 | 51962
3 | 11:32.63 | 4:46.25 | 51963 | 73437
4 | 16:19.13 | 4:40.62 | 73438 | 94499
5 | 21:00.00 | 4:00.30 | 94500 | 112529
6 | 25:00.30 | 3:28.45 | 112530 | 128174
7 | 28:29.00 | 4:05.40 | 128175 | 146589
8 | 32:34.40 | 4:11.30 | 146590 | 165444
9 | 36:45.70 | 5:43.23 | 165445 | 191192
10 | 42:29.18 | 4:25.30 | 191193 | 211097
11 | 46:54.48 | 3:51.45 | 211098 | 228467
12 | 50:46.18 | 5:04.15 | 228468 | 251282
13 | 55:50.33 | 4:26.70 | 251283 | 271302
14 | 60:17.28 | 3:35.00 | 271303 | 287427

Характеристики диапазона извлечения и сообщения об ошибках

Выбранный диапазон

Имя файла C:\Documents and Settings\Admin\Рабочий стол\Daisy Dee - The Best Of Daisy Dee.wav

Пиковый уровень 100.0 %
Скорость извлечения 3.7 X
Качество диапазона 99.9 %
CRC теста 57327361
CRC копии 57327361
Копирование... OK

Ошибок не произошло

AccurateRip: сводка

Трек 1 : извлечено точно (доверие 1) [71EAD4E4] (AR v2)
Трек 2 : извлечено точно (доверие 1) [F967E601] (AR v2)
Трек 3 : извлечено точно (доверие 1) [2F0B70AC] (AR v2)
Трек 4 : извлечено точно (доверие 1) [35FCEF21] (AR v2)
Трек 5 : извлечено точно (доверие 1) [8FFB1D08] (AR v2)
Трек 6 : извлечено точно (доверие 1) [72C9C644] (AR v2)
Трек 7 : извлечено точно (доверие 1) [DD239D98] (AR v2)
Трек 8 : извлечено точно (доверие 1) [B2F4632A] (AR v2)
Трек 9 : извлечено точно (доверие 1) [FBF340E4] (AR v2)
Трек 10 : извлечено точно (доверие 1) [919549FF] (AR v2)
Трек 11 : извлечено точно (доверие 1) [084A741D] (AR v2)
Трек 12 : извлечено точно (доверие 1) [1A4560A8] (AR v2)
Трек 13 : извлечено точно (доверие 1) [AD213994] (AR v2)
Трек 14 : извлечено точно (доверие 1) [AF5AC982] (AR v2)

Все треки извлечены точно

Конец отчёта

Этот торрент недоступен для скачивания без регистрации, однако доступен по публичной magnet-ссылке (источники с публичных трекеров). Перед использованием ссылки прочтите, пожалуйста Пользовательское соглашение, а также как можно дольше оставайтесь на раздаче! Для того, чтобы скачать сам торрент-файл (который видит больше источников), а также для того, чтобы поблагодарить релизера, вам необходимо зарегистрироваться. Если регистрироваться лень - вы можете также попробовать скачать релиз по нашим партнерским ссылкам ниже. Кроме того, зарегистрированным пользователям не показывается всплывающая реклама при скачивании.

[underver.se].t225059.torrent
Трекер: Зарегистрирован   [ 19.10.2021 14:56 ]  
Статус: проверено (by Renesans at 19.10.2021 14:58)
Поблагодарили: 1 человек
Тип торрента: публичный - доступные источники с открытых трекеров: 
Размер: 447 MB (занимает 0.1 DVDR, для записи нужно 1 болванка DVDR/RW)
 
 

Яндекс.Метрика powered by Sphinx


В Н И М А Н И Е
Сайт не распространяет и не хранит электронные версии произведений, а лишь бесплатно и без коммерческой выгоды (не требуя взамен платы,
SMS и т.д.) предоставляет доступ к создаваемому пользователями каталогу ссылок на торрент-файлы, которые содержат только списки хеш-сумм.
Убедительная просьба с жалобами обращаться напрямую к пользователю, разместившему торрент файл.

Вверх