Loading...
Error

(Euro House) Gala - Come Into My Life (German Release) (1997) [FLAC (image+.cue) lossless]

Статистика раздачи
Размер:  254 MB   |    Зарегистрирован:  11 месяцев   |    Скачан:  2 раза

Полного источника не было: 1 месяц 1 день

Сидов:  0  |  0 KB/s  ]   Личеров:  0  |  0 KB/s  ]

* - сиды/пиры с внешних источников

   
 
Автор Сообщение

Renesans Пол:Муж

19-Окт-2021 15:51

Gala / Come Into My Life (German Release)

Жанр: Euro House
Страна-производитель диска: Germany
Год издания диска: 1997
Издатель (лейбл): ZYX music
Номер по каталогу: ZYX 20444-2
Страна: подскажите

Аудио кодек: FLAC (*.flac)
Тип рипа: image+.cue
Битрейт аудио: lossless
Продолжительность: 37.58.467 (100 480 380 samples)
Источник (релизер): собственный диск и рип
Наличие сканов в содержимом раздачи:
полный комплект сканов , включая диск и яблоко - в отдельной папке
01 "Keep The Secret" 4.25
02 "Come Into My Life" 3.26
03 "Suddenly" 3.57
04 "Freed From Desire (Slow Version)" 3.53
05 "Let A Boy Cry" 3.25
06 "Summer Eclipse [From the 'Gipsy Kings']" 4.57
07 "Dance Or Die" 3.21
08 "Come Into My Life (Molella & Phil Jay Edit)" 3.21
09 "10 O'Clock" 3.21
10 "Freed from Desire" 3.2
 
Exact Audio Copy V0.99 prebeta 5 from 4. May 2009

Отчёт EAC об извлечении, выполненном 12. декабря 2010, 15:17

Gala / Come Into My Life

Дисковод: ATAPI DVD A DH16AAS Adapter: 2 ID: 0

Режим чтения : Достоверность
Использование точного потока : Да
Отключение кэша аудио : Да
Использование указателей C2 : Нет

Коррекция смещения при чтении : 6
Способность читать области Lead-in и Lead-out : Нет
Заполнение пропущенных сэмплов тишиной : Да
Удаление блоков с тишиной в начале и конце : Нет
При вычислениях CRC использовались нулевые сэмплы : Да
Интерфейс : Встроенный Win32-интерфейс для Win NT/2000

Выходной формат : Пользовательский кодировщик
Выбранный битрейт : 768 kBit/s
Качество : Высокий
Добавление ID3-тэга : Нет
Утилита сжатия : C:\Program Files\Exact Audio Copy\FLAC\FLAC.EXE
Дополнительные параметры : -6 -V -T "ARTIST=%a" -T "TITLE=%t" -T "ALBUM=%g" -T "DATE=%y" -T "TRACKNUMBER=%n" -T "GENRE=%m" -T "COMMENT=%e" %s -o %d

TOC извлечённого CD

Трек | Старт | Длительность | Начальный сектор | Конечный сектор
---------------------------------------------------------------------
1 | 0:00.00 | 4:24.68 | 0 | 19867
2 | 4:24.68 | 3:25.56 | 19868 | 35298
3 | 7:50.49 | 3:57.29 | 35299 | 53102
4 | 11:48.03 | 3:53.16 | 53103 | 70593
5 | 15:41.19 | 3:25.04 | 70594 | 85972
6 | 19:06.23 | 4:56.60 | 85973 | 108232
7 | 24:03.08 | 3:21.00 | 108233 | 123307
8 | 27:24.08 | 3:25.37 | 123308 | 138719
9 | 30:49.45 | 3:35.27 | 138720 | 154871
10 | 34:24.72 | 3:33.38 | 154872 | 170884

Характеристики диапазона извлечения и сообщения об ошибках

Выбранный диапазон

Имя файла C:\Users\user\Desktop\Gala - 1997 -Come Into My Life\Gala - Come Into My Life.wav

Пиковый уровень 100.0 %
Качество диапазона 100.0 %
CRC теста 6CE4D1F6
CRC копии 6CE4D1F6
Копирование... OK

Ошибок не произошло

AccurateRip: сводка

Трек 1 нет в базе данных
Трек 2 нет в базе данных
Трек 3 нет в базе данных
Трек 4 нет в базе данных
Трек 5 нет в базе данных
Трек 6 нет в базе данных
Трек 7 нет в базе данных
Трек 8 нет в базе данных
Трек 9 нет в базе данных
Трек 10 нет в базе данных

Ни одного трека нет в базе AccurateRip

Конец отчёта

 
REM GENRE Dance
REM DATE 1997
REM DISCID 7F08E60A
REM COMMENT "ExactAudioCopy v0.99pb5"
PERFORMER "Gala"
TITLE "Come Into My Life"
FILE "Gala - Come Into My Life.flac" WAVE
TRACK 01 AUDIO
TITLE "01.Keep the secret"
PERFORMER "Gala"
INDEX 01 00:00:00
TRACK 02 AUDIO
TITLE "02.Come Into My Life"
PERFORMER "Gala"
INDEX 00 04:23:68
INDEX 01 04:24:68
TRACK 03 AUDIO
TITLE "03.Suddenly"
PERFORMER "Gala"
INDEX 00 07:49:49
INDEX 01 07:50:49
TRACK 04 AUDIO
TITLE "04.Freed From Desire"
PERFORMER "Gala"
INDEX 00 11:47:04
INDEX 01 11:48:03
TRACK 05 AUDIO
TITLE "05.Let A Boy Cry"
PERFORMER "Gala"
INDEX 00 15:40:20
INDEX 01 15:41:19
TRACK 06 AUDIO
TITLE "06.Summer Eclipse"
PERFORMER "Gala"
INDEX 00 19:05:24
INDEX 01 19:06:23
TRACK 07 AUDIO
TITLE "07.Dance Or Die"
PERFORMER "Gala"
INDEX 00 24:02:08
INDEX 01 24:03:08
TRACK 08 AUDIO
TITLE "08.Come Into My Life"
PERFORMER "Gala"
INDEX 00 27:23:08
INDEX 01 27:24:08
TRACK 09 AUDIO
TITLE "09.10 OґClock"
PERFORMER "Gala"
INDEX 00 30:48:45
INDEX 01 30:49:45
TRACK 10 AUDIO
TITLE "10.Freed From Desire"
PERFORMER "Gala"
INDEX 00 34:23:73
INDEX 01 34:24:72
РАЗДАЁТСЯ ИСКЛЮЧИТЕЛЬНО В ОЗНАКОМИТЕЛЬНЫХ ЦЕЛЯХ.ПОСЛЕ ОЗНАКОМЛЕНИЯ РЕКОМЕНДУЕТСЯ УДАЛИТЬ И КУПИТЬ ЛИЦЕНЗИОННЫЙ ДИСК

Этот торрент недоступен для скачивания без регистрации, однако доступен по публичной magnet-ссылке (источники с публичных трекеров). Перед использованием ссылки прочтите, пожалуйста Пользовательское соглашение, а также как можно дольше оставайтесь на раздаче! Для того, чтобы скачать сам торрент-файл (который видит больше источников), а также для того, чтобы поблагодарить релизера, вам необходимо зарегистрироваться. Если регистрироваться лень - вы можете также попробовать скачать релиз по нашим партнерским ссылкам ниже. Кроме того, зарегистрированным пользователям не показывается всплывающая реклама при скачивании.

[underver.se].t225062.torrent
Трекер: Зарегистрирован   [ 19.10.2021 15:51 ]  
Статус: проверено (by Renesans at 19.10.2021 16:17)
Поблагодарили: пока никто не поблагодарил...
Тип торрента: публичный - доступные источники с открытых трекеров: 
Размер: 254 MB (занимает 0.06 DVDR, для записи нужно 1 болванка DVDR/RW)
 
 

Яндекс.Метрика powered by Sphinx


В Н И М А Н И Е
Сайт не распространяет и не хранит электронные версии произведений, а лишь бесплатно и без коммерческой выгоды (не требуя взамен платы,
SMS и т.д.) предоставляет доступ к создаваемому пользователями каталогу ссылок на торрент-файлы, которые содержат только списки хеш-сумм.
Убедительная просьба с жалобами обращаться напрямую к пользователю, разместившему торрент файл.

Вверх