Loading...
Error

(Eurodanceб Euro-House) Pandora - This Could Be Heaven (1997) [APE (image+.cue), lossless]

Статистика раздачи
Размер:  387 MB   |    Зарегистрирован:  11 месяцев   |    Скачан:  2 раза
Сидов:  1  |  0 KB/s  ]   Личеров:  0  |  0 KB/s  ]

* - сиды/пиры с внешних источников

   
 
Автор Сообщение

Renesans Пол:Муж

19-Окт-2021 16:20

Pandora - This Could Be Heaven

Жанр: Eurodance, Euro-House
Год выпуска диска: 1997
Производитель диска: Europe

Аудио кодек: APE
Тип рипа: image+.cue
Битрейт аудио: lossless
Продолжительность: 53:41
01 Single Life (3:36)
02 Everybody's Livin' It Up (4:10)
03 Shout It Out (3:16)
04 Show Me What You Got (3:22)
05 Great Life (3:54)
06 If This Isn't Love (What Is It) (4:20)
07 This Could Be Heaven (3:55)
08 Let It Go (3:02)
09 (You've Always Be) The Love Of My Life (4:00)
10 Mr. Right (3:32)
11 I'll Be There For You (4:32)
12 I Welcome You (3:43)
13 You Drive Me Crazy (3:15)
14 I Feel Free (3:38)
Exact Audio Copy V0.99 prebeta 4 from 23. January 2008

Отчёт EAC об извлечении, выполненном 21. декабря 2009, 20:44

Pandora / This Could Be Heaven

Дисковод: Optiarc DVD RW AD-5200A Adapter: 0 ID: 0

Режим чтения : Достоверность
Использование точного потока : Да
Отключение кэша аудио : Да
Использование указателей C2 : Нет

Коррекция смещения при чтении : 48
Способность читать области Lead-in и Lead-out : Нет
Заполнение пропущенных сэмплов тишиной : Да
Удаление блоков с тишиной в начале и конце : Нет
При вычислениях CRC использовались нулевые сэмплы : Да
Интерфейс : Встроенный Win32-интерфейс для Win NT/2000

Выходной формат : Внутренние WAV-операции
Формат сэмплов : 44.100 Гц; 16 бит; стерео

TOC извлечённого CD

Трек | Старт | Длительность | Начальный сектор | Конечный сектор
---------------------------------------------------------------------
1 | 0:00.00 | 3:46.02 | 0 | 16951
2 | 3:46.02 | 4:16.02 | 16952 | 36153
3 | 8:02.04 | 3:22.02 | 36154 | 51305
4 | 11:24.06 | 3:28.02 | 51306 | 66907
5 | 14:52.08 | 4:01.02 | 66908 | 84984
6 | 18:53.10 | 4:27.02 | 84985 | 105011
7 | 23:20.12 | 4:01.02 | 105012 | 123088
8 | 27:21.14 | 3:08.02 | 123089 | 137190
9 | 30:29.16 | 4:07.02 | 137191 | 155717
10 | 34:36.18 | 3:38.02 | 155718 | 172069
11 | 38:14.20 | 4:38.02 | 172070 | 192921
12 | 42:52.22 | 3:49.02 | 192922 | 210098
13 | 46:41.24 | 3:20.02 | 210099 | 225100
14 | 50:01.26 | 3:40.02 | 225101 | 241602

Характеристики диапазона извлечения и сообщения об ошибках

Выбранный диапазон

Имя файла F:\Lossless\Pandora - This Could Be Heaven.wav

Пиковый уровень 98.9 %
Качество диапазона 99.9 %
CRC копии 494FCCF8
Копирование... OK

Ошибок не произошло

Конец отчёта
Источник: danceforum, спасибо DJ Stakan

Этот торрент недоступен для скачивания без регистрации, однако доступен по публичной magnet-ссылке (источники с публичных трекеров). Перед использованием ссылки прочтите, пожалуйста Пользовательское соглашение, а также как можно дольше оставайтесь на раздаче! Для того, чтобы скачать сам торрент-файл (который видит больше источников), а также для того, чтобы поблагодарить релизера, вам необходимо зарегистрироваться. Если регистрироваться лень - вы можете также попробовать скачать релиз по нашим партнерским ссылкам ниже. Кроме того, зарегистрированным пользователям не показывается всплывающая реклама при скачивании.

[underver.se].t225065.torrent
Трекер: Зарегистрирован   [ 19.10.2021 16:20 ]  
Статус: проверено (by Renesans at 19.10.2021 16:22)
Поблагодарили: пока никто не поблагодарил...
Тип торрента: публичный - доступные источники с открытых трекеров: 
Размер: 387 MB (занимает 0.09 DVDR, для записи нужно 1 болванка DVDR/RW)
 
 

Яндекс.Метрика powered by Sphinx


В Н И М А Н И Е
Сайт не распространяет и не хранит электронные версии произведений, а лишь бесплатно и без коммерческой выгоды (не требуя взамен платы,
SMS и т.д.) предоставляет доступ к создаваемому пользователями каталогу ссылок на торрент-файлы, которые содержат только списки хеш-сумм.
Убедительная просьба с жалобами обращаться напрямую к пользователю, разместившему торрент файл.

Вверх