Loading...
Error

(Trance, Synth-Pop) Gigi D'Agostino - L'amour Toujours (2 CD) (1999) [FLAC (image + .cue), lossless]

Статистика раздачи
Размер:  810 MB   |    Зарегистрирован:  11 месяцев   |    Скачан:  3 раза

Полного источника не было: 5 месяцев

Сидов:  0  |  0 KB/s  ]   Личеров:  0  |  0 KB/s  ]

* - сиды/пиры с внешних источников

   
 
Автор Сообщение

Renesans Пол:Муж

19-Окт-2021 16:25

Gigi D'Agostino - L'amour Toujours (2 CD)

Страна: Italy
Жанр: Trance/Synth-pop
Год выпуска: 1999

Формат: FLAC (image + .cue)
Битрейт аудио: lossless
CD 1 - Chansons for The Heart

1. Another Way - 6:03
2. L'Amour Toujours - 6:57
3. Elisir - 5:34
4. The Riddle - 4:45
5. La Passion[Medley with Rectangle] - 7:36
6. The Way - 6:43
7. Star - 5:24
8. Gin Lemon [Extended Mix] - 5:48
9. L'Amour - 3:32
10. Music - 6:53
11. Rectangle - 5:00
12. Bla Bla Bla - 4:15

CD 2 - Beats For The Feet

1. La Dance - 4:54
2. Movimento - 4:54
3. La Marche Electronique - 5:17
4. Cuba Libre - 4:42
5. My Dimension - 6:37
6. The Riddle (Instrumental) - 4:07
7. Tekno Jam - 9:50
8. Coca e Avana - 3:19
9. Bla Bla Bla (Dark Mix) - 5:39
10. Electro Message - 3:52
11. Fly - 5:15
Exact Audio Copy V0.99 prebeta 4 from 23. January 2008

EAC extraction logfile from 25. April 2008, 14:20

Gigi D'Agostino / L'Amour Toujours

Used drive : HL-DT-STDVD+-RW GSA-T21N Adapter: 2 ID: 0

Read mode : Secure
Utilize accurate stream : Yes
Defeat audio cache : Yes
Make use of C2 pointers : No

Read offset correction : 667
Overread into Lead-In and Lead-Out : No
Fill up missing offset samples with silence : Yes
Delete leading and trailing silent blocks : No
Null samples used in CRC calculations : Yes
Used interface : Installed external ASPI interface

Used output format : User Defined Encoder
Selected bitrate : 768 kBit/s
Quality : High
Add ID3 tag : No
Command line compressor : C:\Program Files\Exact Audio Copy\FLAC\FLAC.EXE
Additional command line options : -6 -V -T "ARTIST=%a" -T "TITLE=%t" -T "ALBUM=%g" -T "DATE=%y" -T "TRACKNUMBER=%n" -T "GENRE=%m" -T "COMMENT=%e" %s -o %d

TOC of the extracted CD

Track | Start | Length | Start sector | End sector
---------------------------------------------------------
1 | 0:00.00 | 6:03.60 | 0 | 27284
2 | 6:03.60 | 6:57.59 | 27285 | 58618
3 | 13:01.44 | 5:34.59 | 58619 | 83727
4 | 18:36.28 | 4:45.52 | 83728 | 105154
5 | 23:22.05 | 7:36.48 | 105155 | 139402
6 | 30:58.53 | 6:43.44 | 139403 | 169671
7 | 37:42.22 | 5:24.17 | 169672 | 193988
8 | 43:06.39 | 5:49.41 | 193989 | 220204
9 | 48:56.05 | 3:32.46 | 220205 | 236150
10 | 52:28.51 | 6:53.43 | 236151 | 267168
11 | 59:22.19 | 5:00.35 | 267169 | 289703
12 | 64:22.54 | 4:15.42 | 289704 | 308870

Range status and errors

Selected range

Filename C:\Documents and Settings\Gigi D'Agostino\cd1\Gigi D'Agostino - L'Amour Toujours.wav

Peak level 96.6 %
Range quality 99.9 %
Copy CRC D24CF3B1
Copy OK

No errors occurred

End of status report
Exact Audio Copy V0.99 prebeta 4 from 23. January 2008

EAC extraction logfile from 25. April 2008, 14:44

Gigi D'Agostino / L'Amour Toujours2

Used drive : HL-DT-STDVD+-RW GSA-T21N Adapter: 2 ID: 0

Read mode : Secure
Utilize accurate stream : Yes
Defeat audio cache : Yes
Make use of C2 pointers : No

Read offset correction : 667
Overread into Lead-In and Lead-Out : No
Fill up missing offset samples with silence : Yes
Delete leading and trailing silent blocks : No
Null samples used in CRC calculations : Yes
Used interface : Installed external ASPI interface

Used output format : User Defined Encoder
Selected bitrate : 768 kBit/s
Quality : High
Add ID3 tag : No
Command line compressor : C:\Program Files\Exact Audio Copy\FLAC\FLAC.EXE
Additional command line options : -6 -V -T "ARTIST=%a" -T "TITLE=%t" -T "ALBUM=%g" -T "DATE=%y" -T "TRACKNUMBER=%n" -T "GENRE=%m" -T "COMMENT=%e" %s -o %d

TOC of the extracted CD

Track | Start | Length | Start sector | End sector
---------------------------------------------------------
1 | 0:00.00 | 4:54.45 | 0 | 22094
2 | 4:54.45 | 4:54.39 | 22095 | 44183
3 | 9:49.09 | 5:17.50 | 44184 | 68008
4 | 15:06.59 | 4:42.48 | 68009 | 89206
5 | 19:49.32 | 6:37.43 | 89207 | 119024
6 | 26:27.00 | 4:07.46 | 119025 | 137595
7 | 30:34.46 | 9:50.46 | 137596 | 181891
8 | 40:25.17 | 3:19.42 | 181892 | 196858
9 | 43:44.59 | 5:39.37 | 196859 | 222320
10 | 49:24.21 | 3:52.43 | 222321 | 239763
11 | 53:16.64 | 6:32.44 | 239764 | 269207

Range status and errors

Selected range

Filename C:\Documents and Settings\Gigi D'Agostino\cd2\Gigi D'Agostino - L'Amour Toujours2.wav

Peak level 98.8 %
Range quality 100.0 %
Copy CRC 65B50F89
Copy OK

No errors occurred

End of status report

Этот торрент недоступен для скачивания без регистрации, однако доступен по публичной magnet-ссылке (источники с публичных трекеров). Перед использованием ссылки прочтите, пожалуйста Пользовательское соглашение, а также как можно дольше оставайтесь на раздаче! Для того, чтобы скачать сам торрент-файл (который видит больше источников), а также для того, чтобы поблагодарить релизера, вам необходимо зарегистрироваться. Если регистрироваться лень - вы можете также попробовать скачать релиз по нашим партнерским ссылкам ниже. Кроме того, зарегистрированным пользователям не показывается всплывающая реклама при скачивании.

[underver.se].t225066.torrent
Трекер: Зарегистрирован   [ 19.10.2021 16:25 ]  
Статус: проверено (by Renesans at 19.10.2021 16:26)
Поблагодарили: пока никто не поблагодарил...
Тип торрента: публичный - доступные источники с открытых трекеров: 
Размер: 810 MB (занимает 0.18 DVDR, для записи нужно 1 болванка DVDR/RW)
 
 

Яндекс.Метрика powered by Sphinx


В Н И М А Н И Е
Сайт не распространяет и не хранит электронные версии произведений, а лишь бесплатно и без коммерческой выгоды (не требуя взамен платы,
SMS и т.д.) предоставляет доступ к создаваемому пользователями каталогу ссылок на торрент-файлы, которые содержат только списки хеш-сумм.
Убедительная просьба с жалобами обращаться напрямую к пользователю, разместившему торрент файл.

Вверх