Loading...
Error

(Euro-House, Italodance) Gigi D'Agostino - Another Way (CDM) (1999) [FLAC (image+.cue), lossless]

Статистика раздачи
Размер:  121 MB   |    Зарегистрирован:  11 месяцев   |    Скачан:  4 раза

Полного источника не было: 1 месяц 7 дней

Сидов:  0  |  0 KB/s  ]   Личеров:  0  |  0 KB/s  ]

* - сиды/пиры с внешних источников

   
 
Автор Сообщение

Renesans Пол:Муж

19-Окт-2021 20:15

Gigi D'Agostino - Another Way (CDM)
Жанр: Euro-House, Italodance
Год выпуска диска: 1999
Производитель диска: Germany (ZYX Music)
Аудио кодек: FLAC
Тип рипа: image+.cue
Битрейт аудио: lossless
Продолжительность: 00:17:18
Трэклист
:
1 Another Way (Radio Cut) 3:30
2 Another Way (Tanzen Mix) 7:42
3 Another Way (LP Mix) 6:02

Доп. информация: Обложка и скан диска внутри торрента. Приятного прослушивания :)
Exact Audio Copy V0.99 prebeta 5 from 4. May 2009

Отчёт EAC об извлечении, выполненном 30. сентября 2009, 19:28

Gigi D'Agostino / Another Way

Дисковод: PHILIPS DVDR1660P1 Adapter: 1 ID: 1

Режим чтения : Достоверность
Использование точного потока : Да
Отключение кэша аудио : Да
Использование указателей C2 : Нет

Коррекция смещения при чтении : 618
Способность читать области Lead-in и Lead-out : Нет
Заполнение пропущенных сэмплов тишиной : Да
Удаление блоков с тишиной в начале и конце : Нет
При вычислениях CRC использовались нулевые сэмплы : Да
Интерфейс : Встроенный Win32-интерфейс для Win NT/2000

Выходной формат : Внутренние WAV-операции
Формат сэмплов : 44.100 Гц; 16 бит; стерео

TOC извлечённого CD

Трек | Старт | Длительность | Начальный сектор | Конечный сектор
---------------------------------------------------------------------
1 | 0:00.00 | 3:33.57 | 0 | 16031
2 | 3:33.57 | 7:41.17 | 16032 | 50623
3 | 11:14.74 | 6:02.71 | 50624 | 77844

Характеристики диапазона извлечения и сообщения об ошибках

Выбранный диапазон

Имя файла F:\Downloads\Gigi D'Agostino - Anoter Way (CDM-1999-Flac)\Gigi D'Agostino - Another Way.wav

Пиковый уровень 98.8 %
Качество диапазона 100.0 %
CRC теста 7171597E
CRC копии 7171597E
Копирование... OK

Ошибок не произошло

AccurateRip: сводка

Трек 1 точное извлечение (доверие 2) [26DD1DD9]
Трек 2 точное извлечение (доверие 2) [23A53851]
Трек 3 точное извлечение (доверие 2) [896E5BF9]

Все треки извлечены точно

Конец отчёта

Этот торрент недоступен для скачивания без регистрации, однако доступен по публичной magnet-ссылке (источники с публичных трекеров). Перед использованием ссылки прочтите, пожалуйста Пользовательское соглашение, а также как можно дольше оставайтесь на раздаче! Для того, чтобы скачать сам торрент-файл (который видит больше источников), а также для того, чтобы поблагодарить релизера, вам необходимо зарегистрироваться. Если регистрироваться лень - вы можете также попробовать скачать релиз по нашим партнерским ссылкам ниже. Кроме того, зарегистрированным пользователям не показывается всплывающая реклама при скачивании.

[underver.se].t225147.torrent
Трекер: Зарегистрирован   [ 19.10.2021 20:15 ]  
Статус: проверено (by Renesans at 19.10.2021 20:15)
Поблагодарили: пока никто не поблагодарил...
Тип торрента: публичный - доступные источники с открытых трекеров: 
Размер: 121 MB (занимает 0.03 DVDR, для записи нужно 1 болванка DVDR/RW)
 
 

Яндекс.Метрика powered by Sphinx


В Н И М А Н И Е
Сайт не распространяет и не хранит электронные версии произведений, а лишь бесплатно и без коммерческой выгоды (не требуя взамен платы,
SMS и т.д.) предоставляет доступ к создаваемому пользователями каталогу ссылок на торрент-файлы, которые содержат только списки хеш-сумм.
Убедительная просьба с жалобами обращаться напрямую к пользователю, разместившему торрент файл.

Вверх