Loading...
Error

(Jazz, Funk, Soul) Jimmy McGriff - Blue To The 'Bone (1988) [FLAC (Tracks+.Cue), Lossless]

Статистика раздачи
Размер:  241 MB   |    Зарегистрирован:  11 месяцев   |    Скачан:  3 раза

Полного источника не было: 9 дней

Сидов:  0  |  0 KB/s  ]   Личеров:  0  |  0 KB/s  ]

* - сиды/пиры с внешних источников

   
 
Автор Сообщение

Бишеп Пол:Муж

22-Окт-2021 13:04

Jimmy McGriff - Blue To The 'Bone

Жанр: Jazz, Funk, Soul
Год выпуска: 1988
Носитель: CD
Производитель диска: Milestone - MCD-9163-2
Аудиокодек: FLAC
Тип рипа: Tracks+.CUE
Битрейт аудио: lossless
Продолжительность: 00:44:33


Треклист:
01. Ain't That Funk for You (06:31)
02. For All We Know (05:14)
03. Don't Get Around Much Anymore (10:20)
04. Secret Love (09:07)
05. Hangin' In (07:47)
06. After the Dark (05:34)

X Lossless Decoder version 20210101 (153.1) 

XLD extraction logfile from 2021-09-29 10:01:20 -0700

Jimmy McGriff / Blue to the 'Bone

Used drive : HL-DT-ST DVDRAM GP65NB60 (revision PF00)
Media type : Pressed CD

Ripper mode : XLD Secure Ripper
Disable audio cache : OK for the drive with a cache less than 1375KiB
Make use of C2 pointers : NO
Read offset correction : 6
Max retry count : 20
Gap status : Analyzed, Appended (except HTOA)

TOC of the extracted CD
Track | Start | Length | Start sector | End sector
---------------------------------------------------------
1 | 00:00:00 | 06:30:60 | 0 | 29309
2 | 06:30:60 | 05:13:65 | 29310 | 52849
3 | 11:44:50 | 10:20:37 | 52850 | 99386
4 | 22:05:12 | 09:07:05 | 99387 | 140416
5 | 31:12:17 | 07:46:73 | 140417 | 175439
6 | 38:59:15 | 05:34:17 | 175440 | 200506

AccurateRip Summary (DiscID: 000aa637-00399241-480a7106)
Track 01 : OK (v2, confidence 2/2)
Track 02 : OK (v2, confidence 2/2)
Track 03 : OK (v2, confidence 2/2)
Track 04 : OK (v2, confidence 2/2)
Track 05 : OK (v2, confidence 2/2)
Track 06 : OK (v2, confidence 2/2)
->All tracks accurately ripped.

All Tracks
Album gain : 1.08 dB
Peak : 0.863678
Statistics
Read error : 0
Jitter error (maybe fixed) : 0
Retry sector count : 0
Damaged sector count : 0

Track 01
Filename : /Volumes/El Segundo/Rips/Jimmy McGriff - Blue to the 'Bone (1988) [FLAC]/01 Ain't That Funk for You.flac
Pre-gap length : 00:02:00

Track gain : -0.75 dB
Peak : 0.863678
CRC32 hash (test run) : 9785D7B2
CRC32 hash : 9785D7B2
CRC32 hash (skip zero) : 033F47BC
AccurateRip v1 signature : 3E58100F
AccurateRip v2 signature : 13026693
->Accurately ripped (v2, confidence 2/2)
Statistics
Read error : 0
Jitter error (maybe fixed) : 0
Retry sector count : 0
Damaged sector count : 0

Track 02
Filename : /Volumes/El Segundo/Rips/Jimmy McGriff - Blue to the 'Bone (1988) [FLAC]/02 For All We Know.flac
Pre-gap length : 00:04:15

Track gain : 8.38 dB
Peak : 0.502441
CRC32 hash (test run) : 0CBA6BFE
CRC32 hash : 0CBA6BFE
CRC32 hash (skip zero) : 4259E3A2
AccurateRip v1 signature : 1A31079D
AccurateRip v2 signature : C980997A
->Accurately ripped (v2, confidence 2/2)
Statistics
Read error : 0
Jitter error (maybe fixed) : 0
Retry sector count : 0
Damaged sector count : 0

Track 03
Filename : /Volumes/El Segundo/Rips/Jimmy McGriff - Blue to the 'Bone (1988) [FLAC]/03 Don't Get Around Much Anymore.flac
Pre-gap length : 00:02:43

Track gain : 1.60 dB
Peak : 0.836304
CRC32 hash (test run) : B332ADDE
CRC32 hash : B332ADDE
CRC32 hash (skip zero) : 420C5C68
AccurateRip v1 signature : FA862752
AccurateRip v2 signature : 47F65853
->Accurately ripped (v2, confidence 2/2)
Statistics
Read error : 0
Jitter error (maybe fixed) : 0
Retry sector count : 0
Damaged sector count : 0

Track 04
Filename : /Volumes/El Segundo/Rips/Jimmy McGriff - Blue to the 'Bone (1988) [FLAC]/04 Secret Love.flac
Pre-gap length : 00:01:32

Track gain : 0.01 dB
Peak : 0.822021
CRC32 hash (test run) : 1A4C3BE2
CRC32 hash : 1A4C3BE2
CRC32 hash (skip zero) : 79D1BBF6
AccurateRip v1 signature : 1D88614B
AccurateRip v2 signature : 87CC1FA3
->Accurately ripped (v2, confidence 2/2)
Statistics
Read error : 0
Jitter error (maybe fixed) : 0
Retry sector count : 0
Damaged sector count : 0

Track 05
Filename : /Volumes/El Segundo/Rips/Jimmy McGriff - Blue to the 'Bone (1988) [FLAC]/05 Hangin' In.flac
Pre-gap length : 00:03:05

Track gain : 1.31 dB
Peak : 0.777527
CRC32 hash (test run) : 0B37103C
CRC32 hash : 0B37103C
CRC32 hash (skip zero) : 4CFE9B83
AccurateRip v1 signature : 216D261E
AccurateRip v2 signature : 77ACCBD1
->Accurately ripped (v2, confidence 2/2)
Statistics
Read error : 0
Jitter error (maybe fixed) : 0
Retry sector count : 0
Damaged sector count : 0

Track 06
Filename : /Volumes/El Segundo/Rips/Jimmy McGriff - Blue to the 'Bone (1988) [FLAC]/06 After the Dark.flac
Pre-gap length : 00:02:68

Track gain : 3.37 dB
Peak : 0.804626
CRC32 hash (test run) : 7AC17DDF
CRC32 hash : 7AC17DDF
CRC32 hash (skip zero) : 24AAAFEE
AccurateRip v1 signature : D07602EC
AccurateRip v2 signature : 99F80547
->Accurately ripped (v2, confidence 2/2)
Statistics
Read error : 0
Jitter error (maybe fixed) : 0
Retry sector count : 0
Damaged sector count : 0

No errors occurred

End of status report

-----BEGIN XLD SIGNATURE-----
EInSb9qWZhPmJ.hRq2xEDK_pakj4ohJ6M0fvadoclPlMvvMo8igw1ELCPqs2X_KIR2Kwh73ctuajGgrLYmtjJC2qW2D8ty6csnZhGQm
-----END XLD SIGNATURE-----
TITLE "Blue to the 'Bone" 
PERFORMER "Jimmy McGriff"
REM GENRE "Jazz"
REM DATE "1988"
REM DISCID 480A7106
REM REPLAYGAIN_ALBUM_GAIN 1.08 dB
REM REPLAYGAIN_ALBUM_PEAK 0.863678
FILE "01 - Ain't That Funk for You.flac" WAVE
TRACK 01 AUDIO
TITLE "Ain't That Funk for You"
REM REPLAYGAIN_TRACK_GAIN -0.75 dB
REM REPLAYGAIN_TRACK_PEAK 0.863678
INDEX 01 00:00:00
TRACK 02 AUDIO
TITLE "For All We Know"
REM REPLAYGAIN_TRACK_GAIN 8.38 dB
REM REPLAYGAIN_TRACK_PEAK 0.502441
INDEX 00 06:26:45
FILE "02 - For All We Know.flac" WAVE
INDEX 01 00:00:00
TRACK 03 AUDIO
TITLE "Don't Get Around Much Anymore"
REM REPLAYGAIN_TRACK_GAIN 1.60 dB
REM REPLAYGAIN_TRACK_PEAK 0.836304
INDEX 00 05:11:22
FILE "03 - Don't Get Around Much Anymore.flac" WAVE
INDEX 01 00:00:00
TRACK 04 AUDIO
TITLE "Secret Love"
REM REPLAYGAIN_TRACK_GAIN 0.01 dB
REM REPLAYGAIN_TRACK_PEAK 0.822021
INDEX 00 10:19:05
FILE "04 - Secret Love.flac" WAVE
INDEX 01 00:00:00
TRACK 05 AUDIO
TITLE "Hangin' In"
REM REPLAYGAIN_TRACK_GAIN 1.31 dB
REM REPLAYGAIN_TRACK_PEAK 0.777527
INDEX 00 09:04:00
FILE "05 - Hangin' In.flac" WAVE
INDEX 01 00:00:00
TRACK 06 AUDIO
TITLE "After the Dark"
REM REPLAYGAIN_TRACK_GAIN 3.37 dB
REM REPLAYGAIN_TRACK_PEAK 0.804626
INDEX 00 07:44:05
FILE "06 - After the Dark.flac" WAVE
INDEX 01 00:00:00

Этот торрент недоступен для скачивания без регистрации, однако доступен по публичной magnet-ссылке (источники с публичных трекеров). Перед использованием ссылки прочтите, пожалуйста Пользовательское соглашение, а также как можно дольше оставайтесь на раздаче! Для того, чтобы скачать сам торрент-файл (который видит больше источников), а также для того, чтобы поблагодарить релизера, вам необходимо зарегистрироваться. Если регистрироваться лень - вы можете также попробовать скачать релиз по нашим партнерским ссылкам ниже. Кроме того, зарегистрированным пользователям не показывается всплывающая реклама при скачивании.

[underver.se].t225324.torrent
Трекер: Зарегистрирован   [ 22.10.2021 13:04 ]  
Статус: проверено (by Бишеп at 22.10.2021 13:04)
Поблагодарили: пока никто не поблагодарил...
Тип торрента: публичный - доступные источники с открытых трекеров: 
Размер: 241 MB (занимает 0.05 DVDR, для записи нужно 1 болванка DVDR/RW)
 
 

Яндекс.Метрика powered by Sphinx


В Н И М А Н И Е
Сайт не распространяет и не хранит электронные версии произведений, а лишь бесплатно и без коммерческой выгоды (не требуя взамен платы,
SMS и т.д.) предоставляет доступ к создаваемому пользователями каталогу ссылок на торрент-файлы, которые содержат только списки хеш-сумм.
Убедительная просьба с жалобами обращаться напрямую к пользователю, разместившему торрент файл.

Вверх