Loading...
Error

(Piano Jazz, Swing, Bop) Erroll Garner - One More Time (2021) [FLAC (Tracks+.Cue), Lossless]

Статистика раздачи
Размер:  337 MB   |    Зарегистрирован:  11 месяцев   |    Скачан:  2 раза

Полного источника не было: 1 месяц 7 дней

Сидов:  0  |  0 KB/s  ]   Личеров:  0  |  0 KB/s  ]

* - сиды/пиры с внешних источников

   
 
Автор Сообщение

Бишеп Пол:Муж

24-Окт-2021 15:59

Erroll Garner - One More Time

Жанр: Piano Jazz, Swing, Bop
Год выпуска: 2021
Носитель: CD
Производитель диска: Essential Jazz Classics - EJC11448
Аудиокодек: FLAC
Тип рипа: Tracks+.CUE
Битрейт аудио: lossless
Продолжительность: 01:16:11


Треклист:
01. Misty (02:49)
02. How High the Moon (03:29)
03. Girl of My Dreams (04:30)
04. Sweet Sue, Just You (03:02)
05. Poor Butterfly (03:11)
06. I'll See You in My Dreams (03:48)
07. La Vie en Rose (04:17)
08. You'd Be So Nice to Come Home To (06:24)
09. Laura (02:48)
10. The Last Time I Saw Paris (05:35)

Exact Audio Copy V1.3 from 2. September 2016 

EAC extraction logfile from 10. September 2021, 16:03

Erroll Garner / One More Time

Used drive : HL-DT-STBD-RE BH16NS55 Adapter: 1 ID: 0

Read mode : Secure
Utilize accurate stream : Yes
Defeat audio cache : Yes
Make use of C2 pointers : No

Read offset correction : 6
Overread into Lead-In and Lead-Out : No
Fill up missing offset samples with silence : Yes
Delete leading and trailing silent blocks : No
Null samples used in CRC calculations : Yes
Used interface : Native Win32 interface for Win NT & 2000
Gap handling : Appended to previous track

Used output format : User Defined Encoder
Selected bitrate : 1024 kBit/s
Quality : High
Add ID3 tag : No
Command line compressor : C:\Program Files (x86)\Exact Audio Copy\Flac\flac.exe
Additional command line options : -8 -V -T "ARTIST=%artist%" -T "TITLE=%title%" -T "ALBUM=%albumtitle%" -T "DATE=%year%" -T "TRACKNUMBER=%tracknr%" -T "GENRE=%genre%" -T "PERFORMER=%albuminterpret%" -T "COMPOSER=%composer%" %haslyrics%--tag-from-file=LYRICS="%lyricsfile%"%haslyrics% -T "ALBUMARTIST=%albumartist%" -T "DISCNUMBER=%cdnumber%" -T "TOTALDISCS=%totalcds%" -T "TOTALTRACKS=%numtracks%" -T "COMMENT=%comment%" %source% -o %dest%

TOC of the extracted CD

Track | Start | Length | Start sector | End sector
---------------------------------------------------------
1 | 0:00.00 | 2:49.35 | 0 | 12709
2 | 2:49.35 | 3:29.10 | 12710 | 28394
3 | 6:18.45 | 4:29.56 | 28395 | 48625
4 | 10:48.26 | 3:02.19 | 48626 | 62294
5 | 13:50.45 | 3:11.00 | 62295 | 76619
6 | 17:01.45 | 3:48.37 | 76620 | 93756
7 | 20:50.07 | 4:17.19 | 93757 | 113050
8 | 25:07.26 | 6:24.37 | 113051 | 141887
9 | 31:31.63 | 2:47.38 | 141888 | 154450
10 | 34:19.26 | 5:35.37 | 154451 | 179612
11 | 39:54.63 | 3:48.28 | 179613 | 196740
12 | 43:43.16 | 3:01.10 | 196741 | 210325
13 | 46:44.26 | 2:09.19 | 210326 | 220019
14 | 48:53.45 | 3:26.46 | 220020 | 235515
15 | 52:20.16 | 3:39.00 | 235516 | 251940
16 | 55:59.16 | 2:59.57 | 251941 | 265422
17 | 58:58.73 | 2:25.37 | 265423 | 276334
18 | 61:24.35 | 3:10.38 | 276335 | 290622
19 | 64:34.73 | 2:44.65 | 290623 | 302987
20 | 67:19.63 | 2:51.56 | 302988 | 315868
21 | 70:11.44 | 2:44.47 | 315869 | 328215
22 | 72:56.16 | 3:14.48 | 328216 | 342813

Track 1

Filename F:\#EAC wav+flac\#New\Erroll Garner - One More Time\01. Erroll Garner - Misty.wav

Pre-gap length 0:00:02.00

Peak level 91.2 %
Extraction speed 4.4 X
Track quality 100.0 %
Test CRC E408495F
Copy CRC E408495F
Track not present in AccurateRip database
Copy OK

Track 2

Filename F:\#EAC wav+flac\#New\Erroll Garner - One More Time\02. Erroll Garner - How High The Moon.wav

Pre-gap length 0:00:02.74

Peak level 91.2 %
Extraction speed 4.0 X
Track quality 99.9 %
Test CRC 5810A532
Copy CRC 5810A532
Track not present in AccurateRip database
Copy OK

Track 3

Filename F:\#EAC wav+flac\#New\Erroll Garner - One More Time\03. Erroll Garner - Girl Of My Dreams.wav

Pre-gap length 0:00:02.74

Peak level 91.2 %
Extraction speed 5.5 X
Track quality 100.0 %
Test CRC 82F79C88
Copy CRC 82F79C88
Track not present in AccurateRip database
Copy OK

Track 4

Filename F:\#EAC wav+flac\#New\Erroll Garner - One More Time\04. Erroll Garner - Easy To Love.wav

Pre-gap length 0:00:02.74

Peak level 91.2 %
Extraction speed 4.4 X
Track quality 99.9 %
Test CRC 4333F9DC
Copy CRC 4333F9DC
Track not present in AccurateRip database
Copy OK

Track 5

Filename F:\#EAC wav+flac\#New\Erroll Garner - One More Time\05. Erroll Garner - Poor Butterfly.wav

Pre-gap length 0:00:02.74

Peak level 91.2 %
Extraction speed 5.9 X
Track quality 100.0 %
Test CRC E4B3B590
Copy CRC E4B3B590
Track not present in AccurateRip database
Copy OK

Track 6

Filename F:\#EAC wav+flac\#New\Erroll Garner - One More Time\06. Erroll Garner - I'Ll See You In My Dreams.wav

Pre-gap length 0:00:02.74

Peak level 91.2 %
Extraction speed 6.3 X
Track quality 100.0 %
Test CRC AECB4DCA
Copy CRC AECB4DCA
Track not present in AccurateRip database
Copy OK

Track 7

Filename F:\#EAC wav+flac\#New\Erroll Garner - One More Time\07. Erroll Garner - La Vie En Rose.wav

Pre-gap length 0:00:02.74

Peak level 91.2 %
Extraction speed 6.7 X
Track quality 100.0 %
Test CRC A4AD82BF
Copy CRC A4AD82BF
Track not present in AccurateRip database
Copy OK

Track 8

Filename F:\#EAC wav+flac\#New\Erroll Garner - One More Time\08. Erroll Garner - You'd Be So Nice To Come Home.wav

Pre-gap length 0:00:02.74

Peak level 95.3 %
Extraction speed 7.4 X
Track quality 100.0 %
Test CRC F4E314DD
Copy CRC F4E314DD
Track not present in AccurateRip database
Copy OK

Track 9

Filename F:\#EAC wav+flac\#New\Erroll Garner - One More Time\09. Erroll Garner - Laura.wav

Pre-gap length 0:00:02.74

Peak level 91.2 %
Extraction speed 6.9 X
Track quality 100.0 %
Test CRC B2C86486
Copy CRC B2C86486
Track not present in AccurateRip database
Copy OK

Track 10

Filename F:\#EAC wav+flac\#New\Erroll Garner - One More Time\10. Erroll Garner - The Last Time I Saw Paris.wav

Pre-gap length 0:00:02.74

Peak level 91.2 %
Extraction speed 7.9 X
Track quality 100.0 %
Test CRC 5078ED14
Copy CRC 5078ED14
Track not present in AccurateRip database
Copy OK

Track 11

Filename F:\#EAC wav+flac\#New\Erroll Garner - One More Time\11. Erroll Garner - The Way You Look Tonight.wav

Pre-gap length 0:00:02.74

Peak level 91.2 %
Extraction speed 6.4 X
Track quality 99.9 %
Test CRC B8A3D01C
Copy CRC B8A3D01C
Track not present in AccurateRip database
Copy OK

Track 12

Filename F:\#EAC wav+flac\#New\Erroll Garner - One More Time\12. Erroll Garner - Body And Soul.wav

Pre-gap length 0:00:02.74

Peak level 91.2 %
Extraction speed 7.8 X
Track quality 100.0 %
Test CRC 328AB658
Copy CRC 328AB658
Track not present in AccurateRip database
Copy OK

Track 13

Filename F:\#EAC wav+flac\#New\Erroll Garner - One More Time\13. Erroll Garner - Indiana.wav

Pre-gap length 0:00:02.74

Peak level 91.2 %
Extraction speed 7.4 X
Track quality 100.0 %
Test CRC 70FC2FD1
Copy CRC 70FC2FD1
Track not present in AccurateRip database
Copy OK

Track 14

Filename F:\#EAC wav+flac\#New\Erroll Garner - One More Time\14. Erroll Garner - Honeysuckle Rose.wav

Pre-gap length 0:00:02.74

Peak level 91.2 %
Extraction speed 8.2 X
Track quality 100.0 %
Test CRC C2F036C4
Copy CRC C2F036C4
Track not present in AccurateRip database
Copy OK

Track 15

Filename F:\#EAC wav+flac\#New\Erroll Garner - One More Time\15. Erroll Garner - I'm In The Mood For Love.wav

Pre-gap length 0:00:02.74

Peak level 91.2 %
Extraction speed 8.5 X
Track quality 100.0 %
Test CRC 2D8C5D84
Copy CRC 2D8C5D84
Track not present in AccurateRip database
Copy OK

Track 16

Filename F:\#EAC wav+flac\#New\Erroll Garner - One More Time\16. Erroll Garner - I Can't Get Started.wav

Pre-gap length 0:00:02.74

Peak level 91.2 %
Extraction speed 8.4 X
Track quality 100.0 %
Test CRC B50143F0
Copy CRC B50143F0
Track not present in AccurateRip database
Copy OK

Track 17

Filename F:\#EAC wav+flac\#New\Erroll Garner - One More Time\17. Erroll Garner - Play Piano Play.wav

Pre-gap length 0:00:02.74

Peak level 91.2 %
Extraction speed 8.3 X
Track quality 100.0 %
Test CRC 6ABB707C
Copy CRC 6ABB707C
Track not present in AccurateRip database
Copy OK

Track 18

Filename F:\#EAC wav+flac\#New\Erroll Garner - One More Time\18. Erroll Garner - Undecided.wav

Pre-gap length 0:00:02.74

Peak level 91.2 %
Extraction speed 8.8 X
Track quality 100.0 %
Test CRC 3D62A26B
Copy CRC 3D62A26B
Track not present in AccurateRip database
Copy OK

Track 19

Filename F:\#EAC wav+flac\#New\Erroll Garner - One More Time\19. Erroll Garner - You're Blasé.wav

Pre-gap length 0:00:02.74

Peak level 91.2 %
Extraction speed 8.8 X
Track quality 100.0 %
Test CRC 0D9E4C67
Copy CRC 0D9E4C67
Track not present in AccurateRip database
Copy OK

Track 20

Filename F:\#EAC wav+flac\#New\Erroll Garner - One More Time\20. Erroll Garner - Sophisticated Lady.wav

Pre-gap length 0:00:02.74

Peak level 91.2 %
Extraction speed 5.4 X
Track quality 100.0 %
Test CRC 403E5452
Copy CRC 403E5452
Track not present in AccurateRip database
Copy OK

Track 21

Filename F:\#EAC wav+flac\#New\Erroll Garner - One More Time\21. Erroll Garner - Ain't She Sweet.wav

Pre-gap length 0:00:02.74

Peak level 91.2 %
Extraction speed 9.1 X
Track quality 100.0 %
Test CRC 83843FEB
Copy CRC 83843FEB
Track not present in AccurateRip database
Copy OK

Track 22

Filename F:\#EAC wav+flac\#New\Erroll Garner - One More Time\22. Erroll Garner - Misty (Strings Arrangement).wav

Pre-gap length 0:00:02.74

Peak level 81.2 %
Extraction speed 9.3 X
Track quality 100.0 %
Test CRC BD4D94E7
Copy CRC BD4D94E7
Track not present in AccurateRip database
Copy OK

None of the tracks are present in the AccurateRip database

No errors occurred

End of status report

---- CUETools DB Plugin V2.1.6

[CTDB TOCID: ciJj0V8dW7lBHLTHWKEbGf2e0lc-] disk not present in database
Submit result: ciJj0V8dW7lBHLTHWKEbGf2e0lc- has been uploaded

==== Log checksum EFDDC57536D87D8DB6A3909DA4B232A1E3D2E0EC980A00B0663BB68E5222AE2F ====
REM GENRE Jazz 
REM DATE 2021
REM DISCID 2D11DA16
REM COMMENT "ExactAudioCopy v1.3"
PERFORMER "Erroll Garner"
TITLE "One More Time"
FILE "01 - Misty.wav" WAVE
TRACK 01 AUDIO
TITLE "Misty"
PERFORMER "Erroll Garner"
INDEX 01 00:00:00
TRACK 02 AUDIO
TITLE "How High the Moon"
PERFORMER "Erroll Garner"
INDEX 00 02:46:54
FILE "02 - How High the Moon.wav" WAVE
INDEX 01 00:00:00
TRACK 03 AUDIO
TITLE "Girl of My Dreams"
PERFORMER "Erroll Garner"
INDEX 00 03:26:29
FILE "03 - Girl of My Dreams.wav" WAVE
INDEX 01 00:00:00
TRACK 04 AUDIO
TITLE "Sweet Sue, Just You"
PERFORMER "Erroll Garner"
INDEX 00 04:27:00
FILE "04 - Sweet Sue, Just You.wav" WAVE
INDEX 01 00:00:00
TRACK 05 AUDIO
TITLE "Poor Butterfly"
PERFORMER "Erroll Garner"
INDEX 00 02:59:38
FILE "05 - Poor Butterfly.wav" WAVE
INDEX 01 00:00:00
TRACK 06 AUDIO
TITLE "I'll See You in My Dreams"
PERFORMER "Erroll Garner"
INDEX 00 03:08:19
FILE "06 - I'll See You in My Dreams.wav" WAVE
INDEX 01 00:00:00
TRACK 07 AUDIO
TITLE "La Vie en Rose"
PERFORMER "Erroll Garner"
INDEX 00 03:45:56
FILE "07 - La Vie en Rose.wav" WAVE
INDEX 01 00:00:00
TRACK 08 AUDIO
TITLE "You'd Be So Nice to Come Home To"
PERFORMER "Erroll Garner"
INDEX 00 04:14:38
FILE "08 - You'd Be So Nice to Come Home To.wav" WAVE
INDEX 01 00:00:00
TRACK 09 AUDIO
TITLE "Laura"
PERFORMER "Erroll Garner"
INDEX 00 06:21:56
FILE "09 - Laura.wav" WAVE
INDEX 01 00:00:00
TRACK 10 AUDIO
TITLE "The Last Time I Saw Paris"
PERFORMER "Erroll Garner"
INDEX 00 02:44:57
FILE "10 - The Last Time I Saw Paris.wav" WAVE
INDEX 01 00:00:00
TRACK 11 AUDIO
TITLE "The Way You Look Tonight"
PERFORMER "Erroll Garner"
INDEX 00 05:32:56
FILE "11 - The Way You Look Tonight.wav" WAVE
INDEX 01 00:00:00
TRACK 12 AUDIO
TITLE "Body and Soul"
PERFORMER "Erroll Garner"
INDEX 00 03:45:47
FILE "12 - Body and Soul.wav" WAVE
INDEX 01 00:00:00
TRACK 13 AUDIO
TITLE "Indiana"
PERFORMER "Erroll Garner"
INDEX 00 02:58:29
FILE "13 - Indiana.wav" WAVE
INDEX 01 00:00:00
TRACK 14 AUDIO
TITLE "Honeysuckle Rose"
PERFORMER "Erroll Garner"
INDEX 00 02:06:38
FILE "14 - Honeysuckle Rose.wav" WAVE
INDEX 01 00:00:00
TRACK 15 AUDIO
TITLE "I'm in the Mood for Love"
PERFORMER "Erroll Garner"
INDEX 00 03:23:65
FILE "15 - I'm in the Mood for Love.wav" WAVE
INDEX 01 00:00:00
TRACK 16 AUDIO
TITLE "I Can't Get Started"
PERFORMER "Erroll Garner"
INDEX 00 03:36:19
FILE "16 - I Can't Get Started.wav" WAVE
INDEX 01 00:00:00
TRACK 17 AUDIO
TITLE "Play, Piano Play"
PERFORMER "Erroll Garner"
INDEX 00 02:57:01
FILE "17 - Play, Piano Play.wav" WAVE
INDEX 01 00:00:00
TRACK 18 AUDIO
TITLE "Undecided"
PERFORMER "Erroll Garner"
INDEX 00 02:22:56
FILE "18 - Undecided.wav" WAVE
INDEX 01 00:00:00
TRACK 19 AUDIO
TITLE "You're Blase"
PERFORMER "Erroll Garner"
INDEX 00 03:07:57
FILE "19 - You're Blase.wav" WAVE
INDEX 01 00:00:00
TRACK 20 AUDIO
TITLE "Sophisticated Lady"
PERFORMER "Erroll Garner"
INDEX 00 02:42:09
FILE "20 - Sophisticated Lady.wav" WAVE
INDEX 01 00:00:00
TRACK 21 AUDIO
TITLE "Ain't She Sweet?"
PERFORMER "Erroll Garner"
INDEX 00 02:49:00
FILE "21 - Ain't She Sweet.wav" WAVE
INDEX 01 00:00:00
TRACK 22 AUDIO
TITLE "Misty (Strings Arrangement)"
PERFORMER "Erroll Garner"
INDEX 00 02:41:66
FILE "22 - Misty (Strings Arrangement).wav" WAVE
INDEX 01 00:00:00

Этот торрент недоступен для скачивания без регистрации, однако доступен по публичной magnet-ссылке (источники с публичных трекеров). Перед использованием ссылки прочтите, пожалуйста Пользовательское соглашение, а также как можно дольше оставайтесь на раздаче! Для того, чтобы скачать сам торрент-файл (который видит больше источников), а также для того, чтобы поблагодарить релизера, вам необходимо зарегистрироваться. Если регистрироваться лень - вы можете также попробовать скачать релиз по нашим партнерским ссылкам ниже. Кроме того, зарегистрированным пользователям не показывается всплывающая реклама при скачивании.

[underver.se].t225567.torrent
Трекер: Зарегистрирован   [ 24.10.2021 15:59 ]  
Статус: проверено (by Бишеп at 24.10.2021 15:59)
Поблагодарили: пока никто не поблагодарил...
Тип торрента: публичный - доступные источники с открытых трекеров: 
Размер: 337 MB (занимает 0.08 DVDR, для записи нужно 1 болванка DVDR/RW)
 
 

Яндекс.Метрика powered by Sphinx


В Н И М А Н И Е
Сайт не распространяет и не хранит электронные версии произведений, а лишь бесплатно и без коммерческой выгоды (не требуя взамен платы,
SMS и т.д.) предоставляет доступ к создаваемому пользователями каталогу ссылок на торрент-файлы, которые содержат только списки хеш-сумм.
Убедительная просьба с жалобами обращаться напрямую к пользователю, разместившему торрент файл.

Вверх