Loading...
Error

(Jazz) New York Voices - Reminiscing In Tempo (2019) [FLAC (Tracks+.Cue), Lossless]

Статистика раздачи
Размер:  300 MB   |    Зарегистрирован:  10 месяцев   |    Скачан:  2 раза

Полного источника не было: 7 месяцев

Сидов:  0  |  0 KB/s  ]   Личеров:  0  |  0 KB/s  ]

* - сиды/пиры с внешних источников

   
 
Автор Сообщение

Бишеп Пол:Муж

27-Окт-2021 11:27

New York Voices - Reminiscing In Tempo

Жанр: Jazz
Год выпуска: 2019
Носитель: CD
Производитель диска: Origin Records - 82784
Аудиокодек: FLAC
Тип рипа: Tracks+.CUE
Битрейт аудио: lossless
Продолжительность: 00:52:27


Треклист:
01. Round, Round, Round (Blue Rondo a la Turk) (07:14)
02. Open Your Eyes, You Can Fly (05:11)
03. Answered Prayers (E de Deus) (05:06)
04. A Dance for Me (04:00)
05. Los Tres Golpes (02:09)
06. Moments in a Mirror (04:07)
07. It's Alright with Me (05:07)
08. Reminiscing in Tempo (05:02)
09. The Forecast Is Sunny (04:47)
10. Invitacion (04:08)
11. Avalon (02:25)
12. In My Life (03:11)

X Lossless Decoder version 20210101 (153.1) 

XLD extraction logfile from 2021-07-23 15:34:05 -0700

New York Voices / Reminiscing in Tempo

Used drive : HL-DT-ST DVDRAM GP65NB60 (revision PF00)
Media type : Pressed CD

Ripper mode : XLD Secure Ripper
Disable audio cache : OK for the drive with a cache less than 1375KiB
Make use of C2 pointers : NO
Read offset correction : 6
Max retry count : 20
Gap status : Analyzed, Appended (except HTOA)

TOC of the extracted CD
Track | Start | Length | Start sector | End sector
---------------------------------------------------------
1 | 00:00:00 | 07:13:40 | 0 | 32514
2 | 07:13:40 | 05:10:74 | 32515 | 55838
3 | 12:24:39 | 05:06:31 | 55839 | 78819
4 | 17:30:70 | 03:59:48 | 78820 | 96792
5 | 21:30:43 | 02:08:51 | 96793 | 106443
6 | 23:39:19 | 04:06:43 | 106444 | 124936
7 | 27:45:62 | 05:07:28 | 124937 | 147989
8 | 32:53:15 | 05:02:37 | 147990 | 170676
9 | 37:55:52 | 04:47:06 | 170677 | 192207
10 | 42:42:58 | 04:07:60 | 192208 | 210792
11 | 46:50:43 | 02:24:57 | 210793 | 221649
12 | 49:15:25 | 03:11:23 | 221650 | 235997

AccurateRip Summary (DiscID: 00198da8-00e87246-ae0c4a0c)
Track 01 : OK (v2, confidence 3/3)
Track 02 : OK (v2, confidence 3/3)
Track 03 : OK (v2, confidence 3/3)
Track 04 : OK (v2, confidence 3/3)
Track 05 : OK (v2, confidence 3/3)
Track 06 : OK (v2, confidence 3/3)
Track 07 : OK (v2, confidence 3/3)
Track 08 : OK (v2, confidence 3/3)
Track 09 : OK (v2, confidence 3/3)
Track 10 : OK (v2, confidence 3/3)
Track 11 : OK (v2, confidence 3/3)
Track 12 : OK (v2, confidence 3/3)
->All tracks accurately ripped.

All Tracks
Album gain : -4.19 dB
Peak : 0.999969
Statistics
Read error : 0
Jitter error (maybe fixed) : 0
Retry sector count : 0
Damaged sector count : 0

Track 01
Filename : /Volumes/El Segundo/Rips/New York Voices - Reminiscing in Tempo (2019) [FLAC]/01 Round, Round, Round (Blue Rondo a La Turk).flac
Pre-gap length : 00:02:00

Track gain : -4.53 dB
Peak : 0.996552
CRC32 hash (test run) : 0B0453A0
CRC32 hash : 0B0453A0
CRC32 hash (skip zero) : 53821657
AccurateRip v1 signature : 8ECEDEC0
AccurateRip v2 signature : FB437A5B
->Accurately ripped (v2, confidence 3/3)
Statistics
Read error : 0
Jitter error (maybe fixed) : 0
Retry sector count : 0
Damaged sector count : 0

Track 02
Filename : /Volumes/El Segundo/Rips/New York Voices - Reminiscing in Tempo (2019) [FLAC]/02 Open Your Eyes, You Can Fly.flac

Track gain : -5.66 dB
Peak : 0.992126
CRC32 hash (test run) : E08ED2F0
CRC32 hash : E08ED2F0
CRC32 hash (skip zero) : 982BE541
AccurateRip v1 signature : D30354F9
AccurateRip v2 signature : 5B887D94
->Accurately ripped (v2, confidence 3/3)
Statistics
Read error : 0
Jitter error (maybe fixed) : 0
Retry sector count : 0
Damaged sector count : 0

Track 03
Filename : /Volumes/El Segundo/Rips/New York Voices - Reminiscing in Tempo (2019) [FLAC]/03 Answered Prayers (E De Deus).flac

Track gain : -4.15 dB
Peak : 0.999969
CRC32 hash (test run) : 6F7B74E5
CRC32 hash : 6F7B74E5
CRC32 hash (skip zero) : D2AF5303
AccurateRip v1 signature : B700F984
AccurateRip v2 signature : 5D72E0B8
->Accurately ripped (v2, confidence 3/3)
Statistics
Read error : 0
Jitter error (maybe fixed) : 0
Retry sector count : 0
Damaged sector count : 0

Track 04
Filename : /Volumes/El Segundo/Rips/New York Voices - Reminiscing in Tempo (2019) [FLAC]/04 A Dance for Me.flac

Track gain : -2.74 dB
Peak : 0.968048
CRC32 hash (test run) : D32D5EA8
CRC32 hash : D32D5EA8
CRC32 hash (skip zero) : 0F1080B6
AccurateRip v1 signature : D404F531
AccurateRip v2 signature : 8C457BD1
->Accurately ripped (v2, confidence 3/3)
Statistics
Read error : 0
Jitter error (maybe fixed) : 0
Retry sector count : 0
Damaged sector count : 0

Track 05
Filename : /Volumes/El Segundo/Rips/New York Voices - Reminiscing in Tempo (2019) [FLAC]/05 Los Tres Golpes.flac

Track gain : -3.41 dB
Peak : 0.888245
CRC32 hash (test run) : 8157225E
CRC32 hash : 8157225E
CRC32 hash (skip zero) : 1BCA890D
AccurateRip v1 signature : 2575B76C
AccurateRip v2 signature : 82118629
->Accurately ripped (v2, confidence 3/3)
Statistics
Read error : 0
Jitter error (maybe fixed) : 0
Retry sector count : 0
Damaged sector count : 0

Track 06
Filename : /Volumes/El Segundo/Rips/New York Voices - Reminiscing in Tempo (2019) [FLAC]/06 Moments in a Mirror.flac

Track gain : -2.72 dB
Peak : 0.998901
CRC32 hash (test run) : D57FFB4E
CRC32 hash : D57FFB4E
CRC32 hash (skip zero) : F159FD18
AccurateRip v1 signature : FDB7E6AF
AccurateRip v2 signature : 9AEAF3BD
->Accurately ripped (v2, confidence 3/3)
Statistics
Read error : 0
Jitter error (maybe fixed) : 0
Retry sector count : 0
Damaged sector count : 0

Track 07
Filename : /Volumes/El Segundo/Rips/New York Voices - Reminiscing in Tempo (2019) [FLAC]/07 It's Alright with Me.flac

Track gain : -5.20 dB
Peak : 0.999969
CRC32 hash (test run) : 107FD59B
CRC32 hash : 107FD59B
CRC32 hash (skip zero) : 46670213
AccurateRip v1 signature : 02986674
AccurateRip v2 signature : 22F14D48
->Accurately ripped (v2, confidence 3/3)
Statistics
Read error : 0
Jitter error (maybe fixed) : 0
Retry sector count : 0
Damaged sector count : 0

Track 08
Filename : /Volumes/El Segundo/Rips/New York Voices - Reminiscing in Tempo (2019) [FLAC]/08 Reminiscing in Tempo.flac

Track gain : -3.34 dB
Peak : 0.999969
CRC32 hash (test run) : 6C3E5194
CRC32 hash : 6C3E5194
CRC32 hash (skip zero) : DA11DE15
AccurateRip v1 signature : 2DD5734B
AccurateRip v2 signature : A569B9F0
->Accurately ripped (v2, confidence 3/3)
Statistics
Read error : 0
Jitter error (maybe fixed) : 0
Retry sector count : 0
Damaged sector count : 0

Track 09
Filename : /Volumes/El Segundo/Rips/New York Voices - Reminiscing in Tempo (2019) [FLAC]/09 The Forecast Is Sunny.flac

Track gain : -4.11 dB
Peak : 0.980988
CRC32 hash (test run) : 18033F79
CRC32 hash : 18033F79
CRC32 hash (skip zero) : 80E28A17
AccurateRip v1 signature : 96B33EF0
AccurateRip v2 signature : 41C76882
->Accurately ripped (v2, confidence 3/3)
Statistics
Read error : 0
Jitter error (maybe fixed) : 0
Retry sector count : 0
Damaged sector count : 0

Track 10
Filename : /Volumes/El Segundo/Rips/New York Voices - Reminiscing in Tempo (2019) [FLAC]/10 Invitacion.flac

Track gain : -2.88 dB
Peak : 0.966370
CRC32 hash (test run) : 5B5AC16B
CRC32 hash : 5B5AC16B
CRC32 hash (skip zero) : 20B26E7C
AccurateRip v1 signature : D1A74169
AccurateRip v2 signature : 0A37C4C5
->Accurately ripped (v2, confidence 3/3)
Statistics
Read error : 0
Jitter error (maybe fixed) : 0
Retry sector count : 0
Damaged sector count : 0

Track 11
Filename : /Volumes/El Segundo/Rips/New York Voices - Reminiscing in Tempo (2019) [FLAC]/11 Avalon.flac

Track gain : -5.07 dB
Peak : 0.993469
CRC32 hash (test run) : E68C6058
CRC32 hash : E68C6058
CRC32 hash (skip zero) : B4CBA8B5
AccurateRip v1 signature : 1E658067
AccurateRip v2 signature : FC50A847
->Accurately ripped (v2, confidence 3/3)
Statistics
Read error : 0
Jitter error (maybe fixed) : 0
Retry sector count : 0
Damaged sector count : 0

Track 12
Filename : /Volumes/El Segundo/Rips/New York Voices - Reminiscing in Tempo (2019) [FLAC]/12 In My Life.flac

Track gain : -3.77 dB
Peak : 0.909363
CRC32 hash (test run) : 9202E449
CRC32 hash : 9202E449
CRC32 hash (skip zero) : DBD063F8
AccurateRip v1 signature : 7A985E7F
AccurateRip v2 signature : F114BB1C
->Accurately ripped (v2, confidence 3/3)
Statistics
Read error : 0
Jitter error (maybe fixed) : 0
Retry sector count : 0
Damaged sector count : 0

No errors occurred

End of status report

-----BEGIN XLD SIGNATURE-----
H_tv6ola4uBK9M6ho6rHaODaVwWzMvbc8QLS36gyJkp5zIGCRgM5LpdIUylMsiuGAuOLJ26U4DgN4MH8PDBQUJK8ZbMZYLKN9cIOq18
-----END XLD SIGNATURE-----
TITLE "Reminiscing in Tempo" 
PERFORMER "New York Voices"
CATALOG 0805558278426
REM GENRE "Jazz"
REM DATE "2019"
REM DISCID AE0C4A0C
REM REPLAYGAIN_ALBUM_GAIN -4.19 dB
REM REPLAYGAIN_ALBUM_PEAK 0.999969
FILE "01 - Round, Round, Round (Blue Rondo a la Turk).flac" WAVE
TRACK 01 AUDIO
TITLE "Round, Round, Round (Blue Rondo a la Turk)"
ISRC QMAAK1938054
REM REPLAYGAIN_TRACK_GAIN -4.53 dB
REM REPLAYGAIN_TRACK_PEAK 0.996552
INDEX 01 00:00:00
FILE "02 - Open Your Eyes, You Can Fly.flac" WAVE
TRACK 02 AUDIO
TITLE "Open Your Eyes, You Can Fly"
ISRC QMAAK1938055
REM REPLAYGAIN_TRACK_GAIN -5.66 dB
REM REPLAYGAIN_TRACK_PEAK 0.992126
INDEX 01 00:00:00
FILE "03 - Answered Prayers (E de Deus).flac" WAVE
TRACK 03 AUDIO
TITLE "Answered Prayers (E de Deus)"
ISRC QMAAK1938056
REM REPLAYGAIN_TRACK_GAIN -4.15 dB
REM REPLAYGAIN_TRACK_PEAK 0.999969
INDEX 01 00:00:00
FILE "04 - A Dance for Me.flac" WAVE
TRACK 04 AUDIO
TITLE "A Dance for Me"
ISRC QMAAK1938057
REM REPLAYGAIN_TRACK_GAIN -2.74 dB
REM REPLAYGAIN_TRACK_PEAK 0.968048
INDEX 01 00:00:00
FILE "05 - Los Tres Golpes.flac" WAVE
TRACK 05 AUDIO
TITLE "Los Tres Golpes"
ISRC QMAAK1938058
REM REPLAYGAIN_TRACK_GAIN -3.41 dB
REM REPLAYGAIN_TRACK_PEAK 0.888245
INDEX 01 00:00:00
FILE "06 - Moments in a Mirror.flac" WAVE
TRACK 06 AUDIO
TITLE "Moments in a Mirror"
ISRC QMAAK1938059
REM REPLAYGAIN_TRACK_GAIN -2.72 dB
REM REPLAYGAIN_TRACK_PEAK 0.998901
INDEX 01 00:00:00
FILE "07 - It's Alright with Me.flac" WAVE
TRACK 07 AUDIO
TITLE "It's Alright with Me"
ISRC QMAAK1938060
REM REPLAYGAIN_TRACK_GAIN -5.20 dB
REM REPLAYGAIN_TRACK_PEAK 0.999969
INDEX 01 00:00:00
FILE "08 - Reminiscing in Tempo.flac" WAVE
TRACK 08 AUDIO
TITLE "Reminiscing in Tempo"
ISRC QMAAK1938061
REM REPLAYGAIN_TRACK_GAIN -3.34 dB
REM REPLAYGAIN_TRACK_PEAK 0.999969
INDEX 01 00:00:00
FILE "09 - The Forecast Is Sunny.flac" WAVE
TRACK 09 AUDIO
TITLE "The Forecast Is Sunny"
ISRC QMAAK1938062
REM REPLAYGAIN_TRACK_GAIN -4.11 dB
REM REPLAYGAIN_TRACK_PEAK 0.980988
INDEX 01 00:00:00
FILE "10 - Invitacion.flac" WAVE
TRACK 10 AUDIO
TITLE "Invitacion"
ISRC QMAAK1938063
REM REPLAYGAIN_TRACK_GAIN -2.88 dB
REM REPLAYGAIN_TRACK_PEAK 0.966370
INDEX 01 00:00:00
FILE "11 - Avalon.flac" WAVE
TRACK 11 AUDIO
TITLE "Avalon"
ISRC QMAAK1938064
REM REPLAYGAIN_TRACK_GAIN -5.07 dB
REM REPLAYGAIN_TRACK_PEAK 0.993469
INDEX 01 00:00:00
FILE "12 - In My Life.flac" WAVE
TRACK 12 AUDIO
TITLE "In My Life"
ISRC QMAAK1938065
REM REPLAYGAIN_TRACK_GAIN -3.77 dB
REM REPLAYGAIN_TRACK_PEAK 0.909363
INDEX 01 00:00:00

Этот торрент недоступен для скачивания без регистрации, однако доступен по публичной magnet-ссылке (источники с публичных трекеров). Перед использованием ссылки прочтите, пожалуйста Пользовательское соглашение, а также как можно дольше оставайтесь на раздаче! Для того, чтобы скачать сам торрент-файл (который видит больше источников), а также для того, чтобы поблагодарить релизера, вам необходимо зарегистрироваться. Если регистрироваться лень - вы можете также попробовать скачать релиз по нашим партнерским ссылкам ниже. Кроме того, зарегистрированным пользователям не показывается всплывающая реклама при скачивании.

[underver.se].t225699.torrent
Трекер: Зарегистрирован   [ 27.10.2021 11:27 ]  
Статус: проверено (by Бишеп at 27.10.2021 11:27)
Поблагодарили: пока никто не поблагодарил...
Тип торрента: публичный - доступные источники с открытых трекеров: 
Размер: 300 MB (занимает 0.07 DVDR, для записи нужно 1 болванка DVDR/RW)
 
 

Яндекс.Метрика powered by Sphinx


В Н И М А Н И Е
Сайт не распространяет и не хранит электронные версии произведений, а лишь бесплатно и без коммерческой выгоды (не требуя взамен платы,
SMS и т.д.) предоставляет доступ к создаваемому пользователями каталогу ссылок на торрент-файлы, которые содержат только списки хеш-сумм.
Убедительная просьба с жалобами обращаться напрямую к пользователю, разместившему торрент файл.

Вверх