Loading...
Error

(Jazz, Swing) Tony Bennett - Jazz (1987) [FLAC (Tracks+.Cue), Lossless]

Статистика раздачи
Размер:  348 MB   |    Зарегистрирован:  11 месяцев   |    Скачан:  1 раз

Полного источника не было: 6 месяцев

Сидов:  0  |  0 KB/s  ]   Личеров:  0  |  0 KB/s  ]

* - сиды/пиры с внешних источников

   
 
Автор Сообщение

Бишеп Пол:Муж

27-Окт-2021 15:27

Tony Bennett - Jazz

Жанр: Jazz, Swing
Год выпуска: 1987
Носитель: CD
Производитель диска: Columbia - CGK 40424
Аудиокодек: FLAC
Тип рипа: Tracks+.CUE
Битрейт аудио: lossless
Продолжительность: 01:08:39

01. I Can't Believe That You're in Love with Me (03:11)
02. Don't Get Around Much Anymore (02:04)
03. Stella by Starlight (02:29)
04. On Green Dolphin Street (04:04)
05. Let's Face the Music and Dance (02:50)
06. I'm Thru with Love (03:19)
07. Solitude (03:47)
08. Lullaby of Broadway (03:20)
09. Dancing in the Dark (02:33)
10. I Let a Song Go Out of My Heart (02:01)
11. When Lights Are Low (05:02)
12. Just One of Those Things (02:03)
13. Crazy Rhythm (02:11)
14. Street of Dreams (02:14)
15. Love Scene (02:37)
16. While the Music Plays On (04:35)
17. Close Your Eyes (02:21)
18. Out of This World (04:33)
19. Just Friends (02:31)
20. Have You Met Miss Jones? (02:15)
21. Danny Boy (05:00)
22. Sweet Lorraine (03:39)

Exact Audio Copy V1.1 from 23. June 2015 

EAC extraction logfile from 30. July 2017, 15:36

Tony Bennett / Jazz

Used drive : PBDS CD-ROM DH-48N1S Adapter: 1 ID: 0

Read mode : Secure
Utilize accurate stream : Yes
Defeat audio cache : Yes
Make use of C2 pointers : No

Read offset correction : 6
Overread into Lead-In and Lead-Out : No
Fill up missing offset samples with silence : Yes
Delete leading and trailing silent blocks : No
Null samples used in CRC calculations : Yes
Used interface : Native Win32 interface for Win NT & 2000
Gap handling : Appended to previous track

Used output format : User Defined Encoder
Selected bitrate : 768 kBit/s
Quality : High
Add ID3 tag : No
Command line compressor : C:\Program Files (x86)\Exact Audio Copy\FLAC\FLAC.EXE
Additional command line options : -8 -V -T "ARTIST=%artist%" -T "TITLE=%title%" -T "ALBUM=%albumtitle%" -T "DATE=%year%" -T "TRACKNUMBER=%tracknr%" -T "GENRE=%genre%" -T "PERFORMER=%albuminterpret%" -T "COMPOSER=%composer%" %haslyrics%--tag-from-file=LYRICS="%lyricsfile%"%haslyrics% -T "ALBUMARTIST=%albumartist%" -T "DISCNUMBER=%cdnumber%" -T "TOTALDISCS=%totalcds%" -T "TOTALTRACKS=%numtracks%" -T "COMMENT=%comment%" %source% -o %dest%

TOC of the extracted CD

Track | Start | Length | Start sector | End sector
---------------------------------------------------------
1 | 0:00.00 | 3:11.02 | 0 | 14326
2 | 3:11.02 | 2:04.10 | 14327 | 23636
3 | 5:15.12 | 2:28.45 | 23637 | 34781
4 | 7:43.57 | 4:03.70 | 34782 | 53076
5 | 11:47.52 | 2:50.30 | 53077 | 65856
6 | 14:38.07 | 3:18.60 | 65857 | 80766
7 | 17:56.67 | 3:47.18 | 80767 | 97809
8 | 21:44.10 | 3:19.67 | 97810 | 112801
9 | 25:04.02 | 2:33.00 | 112802 | 124276
10 | 27:37.02 | 2:01.28 | 124277 | 133379
11 | 29:38.30 | 5:01.55 | 133380 | 156009
12 | 34:40.10 | 2:03.20 | 156010 | 165254
13 | 36:43.30 | 2:10.50 | 165255 | 175054
14 | 38:54.05 | 2:13.65 | 175055 | 185094
15 | 41:07.70 | 2:37.12 | 185095 | 196881
16 | 43:45.07 | 4:35.10 | 196882 | 217516
17 | 48:20.17 | 2:21.20 | 217517 | 228111
18 | 50:41.37 | 4:33.13 | 228112 | 248599
19 | 55:14.50 | 2:30.55 | 248600 | 259904
20 | 57:45.30 | 2:15.15 | 259905 | 270044
21 | 60:00.45 | 4:59.40 | 270045 | 292509
22 | 65:00.10 | 3:39.22 | 292510 | 308956

Track 1

Filename C:\EACRips\01 - I Can't Believe That You're In Love With Me.wav

Pre-gap length 0:00:02.00

Peak level 70.4 %
Extraction speed 3.9 X
Track quality 100.0 %
Test CRC D3DB71E9
Copy CRC D3DB71E9
Accurately ripped (confidence 3) [10ECEEC4] (AR v2)
Copy OK

Track 2

Filename C:\EACRips\02 - Don't Get Around Much Anymore.wav

Pre-gap length 0:00:02.80

Peak level 74.0 %
Extraction speed 3.3 X
Track quality 99.9 %
Test CRC 519C8000
Copy CRC 519C8000
Accurately ripped (confidence 3) [B2CBBAD6] (AR v2)
Copy OK

Track 3

Filename C:\EACRips\03 - Stella By Starlight.wav

Pre-gap length 0:00:03.20

Peak level 65.2 %
Extraction speed 4.8 X
Track quality 100.0 %
Test CRC DF20FD28
Copy CRC DF20FD28
Accurately ripped (confidence 3) [447A93A7] (AR v2)
Copy OK

Track 4

Filename C:\EACRips\04 - On Green Dolphin Street.wav

Pre-gap length 0:00:02.49

Peak level 58.1 %
Extraction speed 5.5 X
Track quality 100.0 %
Test CRC D4ECE2AD
Copy CRC D4ECE2AD
Accurately ripped (confidence 3) [45156F0D] (AR v2)
Copy OK

Track 5

Filename C:\EACRips\05 - Let's Face The Music And Dance.wav

Pre-gap length 0:00:02.69

Peak level 62.8 %
Extraction speed 5.6 X
Track quality 100.0 %
Test CRC 862C35CA
Copy CRC 862C35CA
Accurately ripped (confidence 3) [10F4AECC] (AR v2)
Copy OK

Track 6

Filename C:\EACRips\06 - I'm Thru With Love.wav

Pre-gap length 0:00:03.09

Peak level 59.4 %
Extraction speed 5.9 X
Track quality 100.0 %
Test CRC 7628F3CB
Copy CRC 7628F3CB
Accurately ripped (confidence 3) [71C1B03F] (AR v2)
Copy OK

Track 7

Filename C:\EACRips\07 - Solitude.wav

Pre-gap length 0:00:02.42

Peak level 74.8 %
Extraction speed 6.1 X
Track quality 100.0 %
Test CRC F5816F96
Copy CRC F5816F96
Accurately ripped (confidence 3) [5C800666] (AR v2)
Copy OK

Track 8

Filename C:\EACRips\08 - Lullaby Of Broadway.wav

Pre-gap length 0:00:03.53

Peak level 73.6 %
Extraction speed 6.3 X
Track quality 100.0 %
Test CRC DFA5F4CE
Copy CRC DFA5F4CE
Accurately ripped (confidence 3) [7A35B4A6] (AR v2)
Copy OK

Track 9

Filename C:\EACRips\09 - Dancing In The Dark.wav

Pre-gap length 0:00:02.02

Peak level 75.6 %
Extraction speed 6.4 X
Track quality 100.0 %
Test CRC 21261840
Copy CRC 21261840
Accurately ripped (confidence 3) [336CDFF5] (AR v2)
Copy OK

Track 10

Filename C:\EACRips\10 - I Let A Song Go Out Of My Heart.wav

Pre-gap length 0:00:02.49

Peak level 72.5 %
Extraction speed 6.1 X
Track quality 100.0 %
Test CRC 8A32936A
Copy CRC 8A32936A
Accurately ripped (confidence 3) [544EDC21] (AR v2)
Copy OK

Track 11

Filename C:\EACRips\11 - When Lights Are Low.wav

Pre-gap length 0:00:02.84

Peak level 57.3 %
Extraction speed 7.4 X
Track quality 100.0 %
Test CRC 36E82D8F
Copy CRC 36E82D8F
Accurately ripped (confidence 3) [D133F683] (AR v2)
Copy OK

Track 12

Filename C:\EACRips\12 - Just One Of Those Things.wav

Pre-gap length 0:00:02.66

Peak level 72.4 %
Extraction speed 6.6 X
Track quality 100.0 %
Test CRC 5DED66F0
Copy CRC 5DED66F0
Accurately ripped (confidence 3) [0ED071E6] (AR v2)
Copy OK

Track 13

Filename C:\EACRips\13 - Crazy Rhythm.wav

Pre-gap length 0:00:02.06

Peak level 80.1 %
Extraction speed 6.6 X
Track quality 100.0 %
Test CRC 96812012
Copy CRC 96812012
Accurately ripped (confidence 3) [17D64A87] (AR v2)
Copy OK

Track 14

Filename C:\EACRips\14 - Street Of Dreams.wav

Pre-gap length 0:00:02.93

Peak level 62.7 %
Extraction speed 6.9 X
Track quality 100.0 %
Test CRC 3D7F4C1D
Copy CRC 3D7F4C1D
Accurately ripped (confidence 3) [E5321597] (AR v2)
Copy OK

Track 15

Filename C:\EACRips\15 - Love Scene.wav

Pre-gap length 0:00:03.10

Peak level 75.4 %
Extraction speed 7.5 X
Track quality 100.0 %
Test CRC D178B31E
Copy CRC D178B31E
Accurately ripped (confidence 3) [4199E4B1] (AR v2)
Copy OK

Track 16

Filename C:\EACRips\16 - While The Music Plays On.wav

Pre-gap length 0:00:03.49

Peak level 40.9 %
Extraction speed 8.1 X
Track quality 100.0 %
Test CRC FF845AF5
Copy CRC FF845AF5
Accurately ripped (confidence 3) [6543F43E] (AR v2)
Copy OK

Track 17

Filename C:\EACRips\17 - Close Your Eyes.wav

Pre-gap length 0:00:03.02

Peak level 81.7 %
Extraction speed 5.2 X
Track quality 100.0 %
Test CRC 23A73457
Copy CRC 23A73457
Accurately ripped (confidence 3) [AFFF18B2] (AR v2)
Copy OK

Track 18

Filename C:\EACRips\18 - Out Of This World.wav

Pre-gap length 0:00:02.89

Peak level 68.8 %
Extraction speed 8.6 X
Track quality 100.0 %
Test CRC 55273109
Copy CRC 55273109
Accurately ripped (confidence 3) [09FE2B84] (AR v2)
Copy OK

Track 19

Filename C:\EACRips\19 - Just Friends.wav

Pre-gap length 0:00:02.73

Peak level 57.6 %
Extraction speed 6.4 X
Track quality 99.9 %
Test CRC ECCA5F57
Copy CRC ECCA5F57
Accurately ripped (confidence 3) [C3D82B39] (AR v2)
Copy OK

Track 20

Filename C:\EACRips\20 - Have You Met Miss Jones~.wav

Pre-gap length 0:00:03.60

Peak level 70.5 %
Extraction speed 7.4 X
Track quality 100.0 %
Test CRC C495110A
Copy CRC C495110A
Accurately ripped (confidence 3) [2F6ECD48] (AR v2)
Copy OK

Track 21

Filename C:\EACRips\21 - Danny Boy.wav

Pre-gap length 0:00:03.20

Peak level 57.6 %
Extraction speed 9.0 X
Track quality 100.0 %
Test CRC 342AEE70
Copy CRC 342AEE70
Accurately ripped (confidence 3) [4B755463] (AR v2)
Copy OK

Track 22

Filename C:\EACRips\22 - Sweet Lorraine.wav

Pre-gap length 0:00:02.70

Peak level 53.5 %
Extraction speed 9.0 X
Track quality 100.0 %
Test CRC 7F266B22
Copy CRC 7F266B22
Accurately ripped (confidence 3) [322721DC] (AR v2)
Copy OK

All tracks accurately ripped

No errors occurred

End of status report

---- CUETools DB Plugin V2.1.6

[CTDB TOCID: lAyLMrx4yG7AXBR4P7eeYVfVMHU-] found
Submit result: lAyLMrx4yG7AXBR4P7eeYVfVMHU- has been confirmed
Track | CTDB Status
1 | (26/26) Accurately ripped
2 | (26/26) Accurately ripped
3 | (26/26) Accurately ripped
4 | (26/26) Accurately ripped
5 | (26/26) Accurately ripped
6 | (26/26) Accurately ripped
7 | (26/26) Accurately ripped
8 | (26/26) Accurately ripped
9 | (26/26) Accurately ripped
10 | (26/26) Accurately ripped
11 | (26/26) Accurately ripped
12 | (26/26) Accurately ripped
13 | (26/26) Accurately ripped
14 | (26/26) Accurately ripped
15 | (26/26) Accurately ripped
16 | (26/26) Accurately ripped
17 | (26/26) Accurately ripped
18 | (26/26) Accurately ripped
19 | (26/26) Accurately ripped
20 | (26/26) Accurately ripped
21 | (26/26) Accurately ripped
22 | (26/26) Accurately ripped

==== Log checksum BCF97D6B0F36421304068C75BEB48FE3045F768118B075E71171D4D35DF1D0D8 ====
REM GENRE Jazz 
REM DATE 1987
REM DISCID 2F101716
REM COMMENT "ExactAudioCopy v1.1"
PERFORMER "Tony Bennett"
TITLE "Jazz"
FILE "01 - I Can't Believe That You're in Love with Me.wav" WAVE
TRACK 01 AUDIO
TITLE "I Can't Believe That You're in Love with Me"
PERFORMER "Tony Bennett"
INDEX 01 00:00:00
TRACK 02 AUDIO
TITLE "Don't Get Around Much Anymore"
PERFORMER "Tony Bennett"
INDEX 00 03:08:17
FILE "02 - Don't Get Around Much Anymore.wav" WAVE
INDEX 01 00:00:00
TRACK 03 AUDIO
TITLE "Stella by Starlight"
PERFORMER "Tony Bennett"
INDEX 00 02:00:70
FILE "03 - Stella by Starlight.wav" WAVE
INDEX 01 00:00:00
TRACK 04 AUDIO
TITLE "On Green Dolphin Street"
PERFORMER "Tony Bennett"
INDEX 00 02:26:08
FILE "04 - On Green Dolphin Street.wav" WAVE
INDEX 01 00:00:00
TRACK 05 AUDIO
TITLE "Let's Face the Music and Dance"
PERFORMER "Tony Bennett"
INDEX 00 04:01:18
FILE "05 - Let's Face the Music and Dance.wav" WAVE
INDEX 01 00:00:00
TRACK 06 AUDIO
TITLE "I'm Thru with Love"
PERFORMER "Tony Bennett"
INDEX 00 02:47:23
FILE "06 - I'm Thru with Love.wav" WAVE
INDEX 01 00:00:00
TRACK 07 AUDIO
TITLE "Solitude"
PERFORMER "Tony Bennett"
INDEX 00 03:16:28
FILE "07 - Solitude.wav" WAVE
INDEX 01 00:00:00
TRACK 08 AUDIO
TITLE "Lullaby of Broadway"
PERFORMER "Tony Bennett"
INDEX 00 03:43:53
FILE "08 - Lullaby of Broadway.wav" WAVE
INDEX 01 00:00:00
TRACK 09 AUDIO
TITLE "Dancing in the Dark"
PERFORMER "Tony Bennett"
INDEX 00 03:17:65
FILE "09 - Dancing in the Dark.wav" WAVE
INDEX 01 00:00:00
TRACK 10 AUDIO
TITLE "I Let a Song Go Out of My Heart"
PERFORMER "Tony Bennett"
INDEX 00 02:30:38
FILE "10 - I Let a Song Go Out of My Heart.wav" WAVE
INDEX 01 00:00:00
TRACK 11 AUDIO
TITLE "When Lights Are Low"
PERFORMER "Tony Bennett"
INDEX 00 01:58:40
FILE "11 - When Lights Are Low.wav" WAVE
INDEX 01 00:00:00
TRACK 12 AUDIO
TITLE "Just One of Those Things"
PERFORMER "Tony Bennett"
INDEX 00 04:59:05
FILE "12 - Just One of Those Things.wav" WAVE
INDEX 01 00:00:00
TRACK 13 AUDIO
TITLE "Crazy Rhythm"
PERFORMER "Tony Bennett"
INDEX 00 02:01:15
FILE "13 - Crazy Rhythm.wav" WAVE
INDEX 01 00:00:00
TRACK 14 AUDIO
TITLE "Street of Dreams"
PERFORMER "Tony Bennett"
INDEX 00 02:07:55
FILE "14 - Street of Dreams.wav" WAVE
INDEX 01 00:00:00
TRACK 15 AUDIO
TITLE "Love Scene"
PERFORMER "Tony Bennett"
INDEX 00 02:10:57
FILE "15 - Love Scene.wav" WAVE
INDEX 01 00:00:00
TRACK 16 AUDIO
TITLE "While the Music Plays On"
PERFORMER "Tony Bennett"
INDEX 00 02:33:50
FILE "16 - While the Music Plays On.wav" WAVE
INDEX 01 00:00:00
TRACK 17 AUDIO
TITLE "Close Your Eyes"
PERFORMER "Tony Bennett"
INDEX 00 04:32:08
FILE "17 - Close Your Eyes.wav" WAVE
INDEX 01 00:00:00
TRACK 18 AUDIO
TITLE "Out of This World"
PERFORMER "Tony Bennett"
INDEX 00 02:18:28
FILE "18 - Out of This World.wav" WAVE
INDEX 01 00:00:00
TRACK 19 AUDIO
TITLE "Just Friends"
PERFORMER "Tony Bennett"
INDEX 00 04:30:33
FILE "19 - Just Friends.wav" WAVE
INDEX 01 00:00:00
TRACK 20 AUDIO
TITLE "Have You Met Miss Jones?"
PERFORMER "Tony Bennett"
INDEX 00 02:27:10
FILE "20 - Have You Met Miss Jones.wav" WAVE
INDEX 01 00:00:00
TRACK 21 AUDIO
TITLE "Danny Boy"
PERFORMER "Tony Bennett"
INDEX 00 02:12:00
FILE "21 - Danny Boy.wav" WAVE
INDEX 01 00:00:00
TRACK 22 AUDIO
TITLE "Sweet Lorraine"
PERFORMER "Tony Bennett"
INDEX 00 04:56:62
FILE "22 - Sweet Lorraine.wav" WAVE
INDEX 01 00:00:00

Этот торрент недоступен для скачивания без регистрации, однако доступен по публичной magnet-ссылке (источники с публичных трекеров). Перед использованием ссылки прочтите, пожалуйста Пользовательское соглашение, а также как можно дольше оставайтесь на раздаче! Для того, чтобы скачать сам торрент-файл (который видит больше источников), а также для того, чтобы поблагодарить релизера, вам необходимо зарегистрироваться. Если регистрироваться лень - вы можете также попробовать скачать релиз по нашим партнерским ссылкам ниже. Кроме того, зарегистрированным пользователям не показывается всплывающая реклама при скачивании.

[underver.se].t225708.torrent
Трекер: Зарегистрирован   [ 27.10.2021 15:27 ]  
Статус: проверено (by Бишеп at 27.10.2021 15:27)
Поблагодарили: пока никто не поблагодарил...
Тип торрента: публичный - доступные источники с открытых трекеров: 
Размер: 348 MB (занимает 0.08 DVDR, для записи нужно 1 болванка DVDR/RW)
 
 

Яндекс.Метрика powered by Sphinx


В Н И М А Н И Е
Сайт не распространяет и не хранит электронные версии произведений, а лишь бесплатно и без коммерческой выгоды (не требуя взамен платы,
SMS и т.д.) предоставляет доступ к создаваемому пользователями каталогу ссылок на торрент-файлы, которые содержат только списки хеш-сумм.
Убедительная просьба с жалобами обращаться напрямую к пользователю, разместившему торрент файл.

Вверх