Loading...
Error

(Crossover Jazz, Post-Bop) Sadao Watanabe - Naturally (2016) [FLAC (Tracks+.Cue), Lossless]

Статистика раздачи
Размер:  311 MB   |    Зарегистрирован:  10 месяцев   |    Скачан:  1 раз

Полного источника не было: 6 месяцев

Сидов:  0  |  0 KB/s  ]   Личеров:  0  |  0 KB/s  ]

* - сиды/пиры с внешних источников

   
 
Автор Сообщение

Бишеп Пол:Муж

30-Окт-2021 13:21

Sadao Watanabe - Naturally

Жанр: Crossover Jazz, Post-Bop
Год выпуска: 2016
Носитель: CD
Производитель диска: Red River - 179
Аудиокодек: FLAC
Тип рипа: Tracks+.CUE
Битрейт аудио: lossless
Продолжительность: 00:52:26


Треклист:
01. Naturally (04:50)
02. Junto com Voce (05:51)
03. After Years (05:47)
04. Bem Agora (04:39)
05. Water Colors (07:06)
06. Na Lapa (04:39)
07. Carinhoso (03:10)
08. Bird's Song (07:01)
09. Spring (04:19)
10. Smile (05:03)

Exact Audio Copy V1.6 from 23. October 2020 

EAC extraction logfile from 2. August 2021, 20:10

Sadao Watanabe / Naturally

Used drive : HL-DT-STDVDRAM GP50NB40 Adapter: 1 ID: 0

Read mode : Secure
Utilize accurate stream : Yes
Defeat audio cache : Yes
Make use of C2 pointers : No

Read offset correction : 6
Overread into Lead-In and Lead-Out : No
Fill up missing offset samples with silence : Yes
Delete leading and trailing silent blocks : No
Null samples used in CRC calculations : Yes
Used interface : Native Win32 interface for Win NT & 2000
Gap handling : Appended to previous track

Used output format : User Defined Encoder
Selected bitrate : 1024 kBit/s
Quality : High
Add ID3 tag : No
Command line compressor : C:\Program Files\Exact Audio Copy\FLAC\FLAC.EXE
Additional command line options : -8 -V -T "ARTIST=%artist%" -T "TITLE=%title%" -T "ALBUM=%albumtitle%" -T "DATE=%year%" -T "TRACKNUMBER=%tracknr%" -T "GENRE=%genre%" -T "PERFORMER=%albuminterpret%" -T "COMPOSER=%composer%" -T "ALBUMARTIST=%albumartist%" -T "DISCNUMBER=%cdnumber%" -T "TOTALDISCS=%totalcds%" -T "TOTALTRACKS=%numtracks%" -T "COMMENT=%comment%" %source% -o %dest%

TOC of the extracted CD

Track | Start | Length | Start sector | End sector
---------------------------------------------------------
1 | 0:00.00 | 4:50.30 | 0 | 21779
2 | 4:50.30 | 5:51.26 | 21780 | 48130
3 | 10:41.56 | 5:46.58 | 48131 | 74138
4 | 16:28.39 | 4:39.19 | 74139 | 95082
5 | 21:07.58 | 7:06.31 | 95083 | 127063
6 | 28:14.14 | 4:38.53 | 127064 | 147966
7 | 32:52.67 | 3:09.54 | 147967 | 162195
8 | 36:02.46 | 7:01.03 | 162196 | 193773
9 | 43:03.49 | 4:19.05 | 193774 | 213203
10 | 47:22.54 | 5:03.05 | 213204 | 235933

Track 1

Filename C:\EAC\Sadao Watanabe - Naturally (2016) [FLAC]\01 - Naturally.wav

Pre-gap length 0:00:02.00

Peak level 98.1 %
Extraction speed 1.1 X
Track quality 100.0 %
Test CRC A2BEB2CE
Copy CRC A2BEB2CE
Accurately ripped (confidence 22) [A9CF27D2] (AR v2)
Copy OK

Track 2

Filename C:\EAC\Sadao Watanabe - Naturally (2016) [FLAC]\02 - Junto Com Voce.wav

Pre-gap length 0:00:04.13

Peak level 98.1 %
Extraction speed 1.3 X
Track quality 100.0 %
Test CRC FDFFCF38
Copy CRC FDFFCF38
Accurately ripped (confidence 22) [3EB64405] (AR v2)
Copy OK

Track 3

Filename C:\EAC\Sadao Watanabe - Naturally (2016) [FLAC]\03 - After Years.wav

Pre-gap length 0:00:04.13

Peak level 98.1 %
Extraction speed 1.5 X
Track quality 100.0 %
Test CRC 51E3193B
Copy CRC 51E3193B
Accurately ripped (confidence 22) [04647DD7] (AR v2)
Copy OK

Track 4

Filename C:\EAC\Sadao Watanabe - Naturally (2016) [FLAC]\04 - Bem Agora.wav

Pre-gap length 0:00:03.13

Peak level 98.1 %
Extraction speed 1.6 X
Track quality 100.0 %
Test CRC EFCDA599
Copy CRC EFCDA599
Accurately ripped (confidence 22) [D92E6814] (AR v2)
Copy OK

Track 5

Filename C:\EAC\Sadao Watanabe - Naturally (2016) [FLAC]\05 - Water Colors.wav

Pre-gap length 0:00:03.13

Peak level 98.1 %
Extraction speed 1.8 X
Track quality 100.0 %
Test CRC 5E2945C8
Copy CRC 5E2945C8
Accurately ripped (confidence 22) [131857D1] (AR v2)
Copy OK

Track 6

Filename C:\EAC\Sadao Watanabe - Naturally (2016) [FLAC]\06 - Na Lapa.wav

Pre-gap length 0:00:04.13

Peak level 98.1 %
Extraction speed 1.9 X
Track quality 100.0 %
Test CRC 94790600
Copy CRC 94790600
Accurately ripped (confidence 22) [73C9F66A] (AR v2)
Copy OK

Track 7

Filename C:\EAC\Sadao Watanabe - Naturally (2016) [FLAC]\07 - Carinhoso.wav

Pre-gap length 0:00:04.13

Peak level 98.1 %
Extraction speed 1.8 X
Track quality 100.0 %
Test CRC AE5AF61C
Copy CRC AE5AF61C
Accurately ripped (confidence 22) [48B97CAC] (AR v2)
Copy OK

Track 8

Filename C:\EAC\Sadao Watanabe - Naturally (2016) [FLAC]\08 - Bird's Song.wav

Pre-gap length 0:00:04.13

Peak level 98.1 %
Extraction speed 2.1 X
Track quality 100.0 %
Test CRC 76271551
Copy CRC 76271551
Accurately ripped (confidence 20) [5A04185A] (AR v2)
Copy OK

Track 9

Filename C:\EAC\Sadao Watanabe - Naturally (2016) [FLAC]\09 - Spring.wav

Pre-gap length 0:00:03.23

Peak level 98.1 %
Extraction speed 2.1 X
Track quality 100.0 %
Test CRC 65BAB079
Copy CRC 65BAB079
Accurately ripped (confidence 22) [5FCB67EF] (AR v2)
Copy OK

Track 10

Filename C:\EAC\Sadao Watanabe - Naturally (2016) [FLAC]\10 - Smile.wav

Pre-gap length 0:00:04.12

Peak level 98.1 %
Extraction speed 2.2 X
Track quality 100.0 %
Test CRC A7B68B06
Copy CRC A7B68B06
Accurately ripped (confidence 22) [BB4254DF] (AR v2)
Copy OK

All tracks accurately ripped

No errors occurred

End of status report

==== Log checksum 83DE7FD675E330BA7B6068FA3F7E2B1C620D2164E8F907676030498938DC036A ====
REM GENRE Jazz 
REM DATE 2015
REM DISCID 9E0C490A
REM COMMENT "ExactAudioCopy v1.6"
PERFORMER "Sadao Watanabe"
TITLE "Naturally"
FILE "01 - Naturally.wav" WAVE
TRACK 01 AUDIO
TITLE "Naturally"
PERFORMER "Sadao Watanabe"
INDEX 01 00:00:00
TRACK 02 AUDIO
TITLE "Junto com Voce"
PERFORMER "Sadao Watanabe"
INDEX 00 04:46:17
FILE "02 - Junto com Voce.wav" WAVE
INDEX 01 00:00:00
TRACK 03 AUDIO
TITLE "After Years"
PERFORMER "Sadao Watanabe"
INDEX 00 05:47:13
FILE "03 - After Years.wav" WAVE
INDEX 01 00:00:00
TRACK 04 AUDIO
TITLE "Bem Agora"
PERFORMER "Sadao Watanabe"
INDEX 00 05:43:45
FILE "04 - Bem Agora.wav" WAVE
INDEX 01 00:00:00
TRACK 05 AUDIO
TITLE "Water Colors"
PERFORMER "Sadao Watanabe"
INDEX 00 04:36:06
FILE "05 - Water Colors.wav" WAVE
INDEX 01 00:00:00
TRACK 06 AUDIO
TITLE "Na Lapa"
PERFORMER "Sadao Watanabe"
INDEX 00 07:02:18
FILE "06 - Na Lapa.wav" WAVE
INDEX 01 00:00:00
TRACK 07 AUDIO
TITLE "Carinhoso"
PERFORMER "Sadao Watanabe"
INDEX 00 04:34:40
FILE "07 - Carinhoso.wav" WAVE
INDEX 01 00:00:00
TRACK 08 AUDIO
TITLE "Bird's Song"
PERFORMER "Sadao Watanabe"
INDEX 00 03:05:41
FILE "08 - Bird's Song.wav" WAVE
INDEX 01 00:00:00
TRACK 09 AUDIO
TITLE "Spring"
PERFORMER "Sadao Watanabe"
INDEX 00 06:57:55
FILE "09 - Spring.wav" WAVE
INDEX 01 00:00:00
TRACK 10 AUDIO
TITLE "Smile"
PERFORMER "Sadao Watanabe"
INDEX 00 04:14:68
FILE "10 - Smile.wav" WAVE
INDEX 01 00:00:00

Этот торрент недоступен для скачивания без регистрации, однако доступен по публичной magnet-ссылке (источники с публичных трекеров). Перед использованием ссылки прочтите, пожалуйста Пользовательское соглашение, а также как можно дольше оставайтесь на раздаче! Для того, чтобы скачать сам торрент-файл (который видит больше источников), а также для того, чтобы поблагодарить релизера, вам необходимо зарегистрироваться. Если регистрироваться лень - вы можете также попробовать скачать релиз по нашим партнерским ссылкам ниже. Кроме того, зарегистрированным пользователям не показывается всплывающая реклама при скачивании.

[underver.se].t225986.torrent
Трекер: Зарегистрирован   [ 30.10.2021 13:21 ]  
Статус: проверено (by Бишеп at 30.10.2021 13:21)
Поблагодарили: пока никто не поблагодарил...
Тип торрента: публичный - доступные источники с открытых трекеров: 
Размер: 311 MB (занимает 0.07 DVDR, для записи нужно 1 болванка DVDR/RW)
 
 

Яндекс.Метрика powered by Sphinx


В Н И М А Н И Е
Сайт не распространяет и не хранит электронные версии произведений, а лишь бесплатно и без коммерческой выгоды (не требуя взамен платы,
SMS и т.д.) предоставляет доступ к создаваемому пользователями каталогу ссылок на торрент-файлы, которые содержат только списки хеш-сумм.
Убедительная просьба с жалобами обращаться напрямую к пользователю, разместившему торрент файл.

Вверх