Loading...
Error

(Contemporary Jazz, Soul) Norah Jones - I Dream Of Christmas (2021) [FLAC (Image+.CUE), Lossless]

Статистика раздачи
Размер:  327 MB   |    Зарегистрирован:  10 месяцев   |    Скачан:  2 раза

Полного источника не было: 16 часов

Сидов:  0  |  0 KB/s  ]   Личеров:  0  |  0 KB/s  ]

* - сиды/пиры с внешних источников

   
 
Автор Сообщение

Бишеп Пол:Муж

01-Ноя-2021 04:34

Norah Jones - I Dream Of Christmas

Жанр: Contemporary Jazz, Soul
Год выпуска: 2021
Носитель: CD
Производитель диска: Blue Note - UCCQ-1147
Аудиокодек: FLAC
Тип рипа: Image+.CUE
Битрейт аудио: lossless
Продолжительность: 00:44:46


Треклист:
01. Christmas Calling (Jolly Jones)
02. Christmas Don't Be Late
03. Christmas Glow
04. White Christmas
05. Christmastime
06. Blue Christmas
07. It's Only Christmas Once A Year
08. You're Not Alone
09. Winter Wonderland
10. A Holiday With You
11. Run Rudolph Run
12. Christmas Time Is Here
13. What Are You Doing New Year's Eve?
14. O Holy Night (bonus)

Exact Audio Copy V1.3 from 2. September 2016 

Отчёт EAC об извлечении, выполненном 20. октября 2021, 21:11

Norah Jones / I Dream Of Christmas

Дисковод: PLEXTOR DVDR PX-755A Adapter: 1 ID: 0

Режим чтения : Достоверность
Использование точного потока : Да
Отключение кэша аудио : Да
Использование указателей C2 : Нет

Коррекция смещения при чтении : 30
Способность читать области Lead-in и Lead-out : Нет
Заполнение пропущенных сэмплов тишиной : Да
Удаление блоков с тишиной в начале и конце : Нет
При вычислениях CRC использовались нулевые сэмплы : Да
Интерфейс : Встроенный Win32-интерфейс для Win NT/2000

Выходной формат : Пользовательский кодировщик
Выбранный битрейт : 128 kBit/s
Качество : Высокий
Добавление ID3-тега : Нет
Утилита сжатия : C:\Program Files (x86)\Exact Audio Copy\Flac\flac.exe
Дополнительные параметры : -V -8 -T "Date=%year%" -T "Genre=%genre%" %source%

TOC извлечённого CD

Трек | Старт | Длительность | Начальный сектор | Конечный сектор
---------------------------------------------------------------------
1 | 0:00.00 | 3:20.34 | 0 | 15033
2 | 3:20.34 | 2:40.22 | 15034 | 27055
3 | 6:00.56 | 2:45.09 | 27056 | 39439
4 | 8:45.65 | 3:05.09 | 39440 | 53323
5 | 11:50.74 | 4:00.19 | 53324 | 71342
6 | 15:51.18 | 3:24.62 | 71343 | 86704
7 | 19:16.05 | 2:04.17 | 86705 | 96021
8 | 21:20.22 | 3:52.01 | 96022 | 113422
9 | 25:12.23 | 3:32.64 | 113423 | 129386
10 | 28:45.12 | 2:40.34 | 129387 | 141420
11 | 31:25.46 | 3:11.66 | 141421 | 155811
12 | 34:37.37 | 3:45.26 | 155812 | 172712
13 | 38:22.63 | 4:03.68 | 172713 | 191005
14 | 42:26.56 | 2:18.74 | 191006 | 201429

Характеристики диапазона извлечения и сообщения об ошибках

Выбранный диапазон

Имя файла D:\РАЗДАЧА\Norah Jones - I Dream Of Christmas - 2021 [Japan]\Norah Jones - I Dream Of Christmas.wav

Пиковый уровень 95.7 %
Скорость извлечения 7.5 X
Качество диапазона 100.0 %
CRC теста 667E8563
CRC копии 667E8563
Копирование... OK

Ошибок не произошло

Конец отчёта

---- CUETools DB Plugin V2.1.6

[CTDB TOCID: SCHKC.HE8ujlw5h5lhPaFbxJv5Q-] found
Submit result: SCHKC.HE8ujlw5h5lhPaFbxJv5Q- has been confirmed
Track | CTDB Status
1 | (3/3) Accurately ripped
2 | (3/3) Accurately ripped
3 | (3/3) Accurately ripped
4 | (3/3) Accurately ripped
5 | (3/3) Accurately ripped
6 | (3/3) Accurately ripped
7 | (3/3) Accurately ripped
8 | (3/3) Accurately ripped
9 | (3/3) Accurately ripped
10 | (3/3) Accurately ripped
11 | (3/3) Accurately ripped
12 | (3/3) Accurately ripped
13 | (3/3) Accurately ripped
14 | (3/3) Accurately ripped

==== Контрольная сумма отчёта DE599C5340662FDD762C69F181BCE0E0A47230A83F83187F6D6C6A7731521115 ====
REM GENRE Vocal 
REM DATE 2021
REM DISCID B80A7D0E
REM COMMENT "ExactAudioCopy v1.3"
PERFORMER "Norah Jones"
TITLE "I Dream Of Christmas"
REM COMPOSER ""
FILE "Norah Jones - I Dream Of Christmas.flac" WAVE
TRACK 01 AUDIO
TITLE "Christmas Calling (Jolly Jones)"
PERFORMER "Norah Jones"
REM COMPOSER ""
INDEX 01 00:00:00
TRACK 02 AUDIO
TITLE "Christmas Don't Be Late"
PERFORMER "Norah Jones"
REM COMPOSER ""
INDEX 01 03:20:34
TRACK 03 AUDIO
TITLE "Christmas Glow"
PERFORMER "Norah Jones"
REM COMPOSER ""
INDEX 01 06:00:56
TRACK 04 AUDIO
TITLE "White Christmas"
PERFORMER "Norah Jones"
REM COMPOSER ""
INDEX 01 08:45:65
TRACK 05 AUDIO
TITLE "Christmastime"
PERFORMER "Norah Jones"
REM COMPOSER ""
INDEX 01 11:50:74
TRACK 06 AUDIO
TITLE "Blue Christmas"
PERFORMER "Norah Jones"
REM COMPOSER ""
INDEX 01 15:51:18
TRACK 07 AUDIO
TITLE "It's Only Christmas Once A Year"
PERFORMER "Norah Jones"
REM COMPOSER ""
INDEX 01 19:16:05
TRACK 08 AUDIO
TITLE "You're Not Alone"
PERFORMER "Norah Jones"
REM COMPOSER ""
INDEX 01 21:20:22
TRACK 09 AUDIO
TITLE "Winter Wonderland"
PERFORMER "Norah Jones"
REM COMPOSER ""
INDEX 01 25:12:23
TRACK 10 AUDIO
TITLE "A Holiday With You"
PERFORMER "Norah Jones"
REM COMPOSER ""
INDEX 01 28:45:12
TRACK 11 AUDIO
TITLE "Run Rudolph Run"
PERFORMER "Norah Jones"
REM COMPOSER ""
INDEX 01 31:25:46
TRACK 12 AUDIO
TITLE "Christmas Time Is Here"
PERFORMER "Norah Jones"
REM COMPOSER ""
INDEX 01 34:37:37
TRACK 13 AUDIO
TITLE "What Are You Doing New Year's Eve?"
PERFORMER "Norah Jones"
REM COMPOSER ""
INDEX 01 38:22:63
TRACK 14 AUDIO
TITLE "O Holy Night"
PERFORMER "Norah Jones"
REM COMPOSER ""
INDEX 01 42:26:56

Этот торрент недоступен для скачивания без регистрации, однако доступен по публичной magnet-ссылке (источники с публичных трекеров). Перед использованием ссылки прочтите, пожалуйста Пользовательское соглашение, а также как можно дольше оставайтесь на раздаче! Для того, чтобы скачать сам торрент-файл (который видит больше источников), а также для того, чтобы поблагодарить релизера, вам необходимо зарегистрироваться. Если регистрироваться лень - вы можете также попробовать скачать релиз по нашим партнерским ссылкам ниже. Кроме того, зарегистрированным пользователям не показывается всплывающая реклама при скачивании.

[underver.se].t226089.torrent
Трекер: Зарегистрирован   [ 01.11.2021 04:34 ]  
Статус: проверено (by Бишеп at 01.11.2021 04:34)
Поблагодарили: пока никто не поблагодарил...
Тип торрента: публичный - доступные источники с открытых трекеров: 
Размер: 327 MB (занимает 0.07 DVDR, для записи нужно 1 болванка DVDR/RW)
 
 

Яндекс.Метрика powered by Sphinx


В Н И М А Н И Е
Сайт не распространяет и не хранит электронные версии произведений, а лишь бесплатно и без коммерческой выгоды (не требуя взамен платы,
SMS и т.д.) предоставляет доступ к создаваемому пользователями каталогу ссылок на торрент-файлы, которые содержат только списки хеш-сумм.
Убедительная просьба с жалобами обращаться напрямую к пользователю, разместившему торрент файл.

Вверх