Loading...
Error

(Jazz, Big Band) Sadao Watanabe - I'm With You (2016) [FLAC (Tracks+.Cue), Lossless]

Статистика раздачи
Размер:  449 MB   |    Зарегистрирован:  10 месяцев   |    Скачан:  3 раза

Полного источника не было: 6 месяцев

Сидов:  0  |  0 KB/s  ]   Личеров:  0  |  0 KB/s  ]

* - сиды/пиры с внешних источников

   
 
Автор Сообщение

Бишеп Пол:Муж

01-Ноя-2021 17:40

Sadao Watanabe - I'm With You

Жанр: Jazz, Big Band
Год выпуска: 2016
Носитель: CD
Производитель диска: Red River - 177
Аудиокодек: FLAC
Тип рипа: Tracks+.CUE
Битрейт аудио: lossless
Продолжительность: 01:13:00


Треклист:
01. Tokyo Dating (07:30)
02. Hip Walk (04:18)
03. Tree Tops (06:17)
04. Episode (06:12)
05. I'm with You (07:33)
06. Early Spring (05:30)
07. Eye Touch (06:05)
08. Warm Days Ahead (04:29)
09. Airy (06:15)
10. Tembea (04:15)
11. Not Quite a Samba (08:00)
12. My Dear Life (06:36)

Exact Audio Copy V1.6 from 23. October 2020 

EAC extraction logfile from 2. August 2021, 18:39

Sadao Watanabe / I'm With You

Used drive : HL-DT-STDVDRAM GP50NB40 Adapter: 1 ID: 0

Read mode : Secure
Utilize accurate stream : Yes
Defeat audio cache : Yes
Make use of C2 pointers : No

Read offset correction : 6
Overread into Lead-In and Lead-Out : No
Fill up missing offset samples with silence : Yes
Delete leading and trailing silent blocks : No
Null samples used in CRC calculations : Yes
Used interface : Native Win32 interface for Win NT & 2000
Gap handling : Appended to previous track

Used output format : User Defined Encoder
Selected bitrate : 1024 kBit/s
Quality : High
Add ID3 tag : No
Command line compressor : C:\Program Files\Exact Audio Copy\FLAC\FLAC.EXE
Additional command line options : -8 -V -T "ARTIST=%artist%" -T "TITLE=%title%" -T "ALBUM=%albumtitle%" -T "DATE=%year%" -T "TRACKNUMBER=%tracknr%" -T "GENRE=%genre%" -T "PERFORMER=%albuminterpret%" -T "COMPOSER=%composer%" -T "ALBUMARTIST=%albumartist%" -T "DISCNUMBER=%cdnumber%" -T "TOTALDISCS=%totalcds%" -T "TOTALTRACKS=%numtracks%" -T "COMMENT=%comment%" %source% -o %dest%

TOC of the extracted CD

Track | Start | Length | Start sector | End sector
---------------------------------------------------------
1 | 0:00.00 | 7:30.02 | 0 | 33751
2 | 7:30.02 | 4:17.52 | 33752 | 53078
3 | 11:47.54 | 6:17.34 | 53079 | 81387
4 | 18:05.13 | 6:11.62 | 81388 | 109274
5 | 24:17.00 | 7:32.40 | 109275 | 143214
6 | 31:49.40 | 5:29.54 | 143215 | 167943
7 | 37:19.19 | 6:05.30 | 167944 | 195348
8 | 43:24.49 | 4:29.14 | 195349 | 215537
9 | 47:53.63 | 6:14.43 | 215538 | 243630
10 | 54:08.31 | 4:14.54 | 243631 | 262734
11 | 58:23.10 | 8:00.37 | 262735 | 298771
12 | 66:23.47 | 6:36.09 | 298772 | 328480

Track 1

Filename C:\EAC\Sadao Watanabe - I'm With You (2016) [FLAC]\01 - Tokyo Dating.wav

Pre-gap length 0:00:02.00

Peak level 98.1 %
Extraction speed 1.4 X
Track quality 100.0 %
Test CRC 770C3553
Copy CRC 770C3553
Accurately ripped (confidence 15) [5B34E080] (AR v2)
Copy OK

Track 2

Filename C:\EAC\Sadao Watanabe - I'm With You (2016) [FLAC]\02 - Hip Walk.wav

Peak level 98.1 %
Extraction speed 1.5 X
Track quality 100.0 %
Test CRC 93A835C6
Copy CRC 93A835C6
Accurately ripped (confidence 15) [DCCEECAD] (AR v2)
Copy OK

Track 3

Filename C:\EAC\Sadao Watanabe - I'm With You (2016) [FLAC]\03 - Tree tops.wav

Peak level 98.1 %
Extraction speed 1.6 X
Track quality 99.9 %
Test CRC 02310C6F
Copy CRC 02310C6F
Accurately ripped (confidence 15) [F5F21BFA] (AR v2)
Copy OK

Track 4

Filename C:\EAC\Sadao Watanabe - I'm With You (2016) [FLAC]\04 - Episode.wav

Peak level 98.1 %
Extraction speed 1.7 X
Track quality 99.9 %
Test CRC 6573E2D1
Copy CRC 6573E2D1
Accurately ripped (confidence 14) [133EA19A] (AR v2)
Copy OK

Track 5

Filename C:\EAC\Sadao Watanabe - I'm With You (2016) [FLAC]\05 - I'm With You.wav

Peak level 98.1 %
Extraction speed 2.1 X
Track quality 100.0 %
Test CRC C541FC4D
Copy CRC C541FC4D
Accurately ripped (confidence 15) [3FC15A75] (AR v2)
Copy OK

Track 6

Filename C:\EAC\Sadao Watanabe - I'm With You (2016) [FLAC]\06 - Early Spring.wav

Peak level 98.1 %
Extraction speed 2.2 X
Track quality 100.0 %
Test CRC 6E898FCA
Copy CRC 6E898FCA
Accurately ripped (confidence 15) [965E78CC] (AR v2)
Copy OK

Track 7

Filename C:\EAC\Sadao Watanabe - I'm With You (2016) [FLAC]\07 - Eye Touch.wav

Peak level 98.1 %
Extraction speed 2.3 X
Track quality 100.0 %
Test CRC 98FC70FF
Copy CRC 98FC70FF
Accurately ripped (confidence 15) [A0C3A42A] (AR v2)
Copy OK

Track 8

Filename C:\EAC\Sadao Watanabe - I'm With You (2016) [FLAC]\08 - Warm Days Ahead.wav

Peak level 98.1 %
Extraction speed 2.3 X
Track quality 100.0 %
Test CRC 5DC651AF
Copy CRC 5DC651AF
Accurately ripped (confidence 15) [4081817B] (AR v2)
Copy OK

Track 9

Filename C:\EAC\Sadao Watanabe - I'm With You (2016) [FLAC]\09 - Airy.wav

Peak level 98.1 %
Extraction speed 2.5 X
Track quality 100.0 %
Test CRC 3051AF96
Copy CRC 3051AF96
Accurately ripped (confidence 15) [5FED4073] (AR v2)
Copy OK

Track 10

Filename C:\EAC\Sadao Watanabe - I'm With You (2016) [FLAC]\10 - Tembea.wav

Peak level 98.1 %
Extraction speed 2.5 X
Track quality 100.0 %
Test CRC 240C667E
Copy CRC 240C667E
Accurately ripped (confidence 15) [594C4E1B] (AR v2)
Copy OK

Track 11

Filename C:\EAC\Sadao Watanabe - I'm With You (2016) [FLAC]\11 - Not Quite A Samba.wav

Peak level 98.1 %
Extraction speed 2.8 X
Track quality 100.0 %
Test CRC 73AEFC74
Copy CRC 73AEFC74
Accurately ripped (confidence 15) [2776A43F] (AR v2)
Copy OK

Track 12

Filename C:\EAC\Sadao Watanabe - I'm With You (2016) [FLAC]\12 - My Dear Life.wav

Peak level 98.1 %
Extraction speed 2.8 X
Track quality 100.0 %
Test CRC 3879D9D2
Copy CRC 3879D9D2
Accurately ripped (confidence 15) [8D004393] (AR v2)
Copy OK

All tracks accurately ripped

No errors occurred

End of status report

==== Log checksum B5C8FDA391294F5F94A149F0D3D58C166506DDCF131B9FF7DCB699136B5F98D2 ====
REM GENRE Jazz 
REM DATE 2015
REM DISCID A9111B0C
REM COMMENT "ExactAudioCopy v1.6"
PERFORMER "Sadao Watanabe"
TITLE "I'm with You"
FILE "01 - Tokyo Dating.wav" WAVE
TRACK 01 AUDIO
TITLE "Tokyo Dating"
PERFORMER "Sadao Watanabe"
INDEX 01 00:00:00
FILE "02 - Hip Walk.wav" WAVE
TRACK 02 AUDIO
TITLE "Hip Walk"
PERFORMER "Sadao Watanabe"
INDEX 01 00:00:00
FILE "03 - Tree Tops.wav" WAVE
TRACK 03 AUDIO
TITLE "Tree Tops"
PERFORMER "Sadao Watanabe"
INDEX 01 00:00:00
FILE "04 - Episode.wav" WAVE
TRACK 04 AUDIO
TITLE "Episode"
PERFORMER "Sadao Watanabe"
INDEX 01 00:00:00
FILE "05 - I'm with You.wav" WAVE
TRACK 05 AUDIO
TITLE "I'm with You"
PERFORMER "Sadao Watanabe"
INDEX 01 00:00:00
FILE "06 - Early Spring.wav" WAVE
TRACK 06 AUDIO
TITLE "Early Spring"
PERFORMER "Sadao Watanabe"
INDEX 01 00:00:00
FILE "07 - Eye Touch.wav" WAVE
TRACK 07 AUDIO
TITLE "Eye Touch"
PERFORMER "Sadao Watanabe"
INDEX 01 00:00:00
FILE "08 - Warm Days Ahead.wav" WAVE
TRACK 08 AUDIO
TITLE "Warm Days Ahead"
PERFORMER "Sadao Watanabe"
INDEX 01 00:00:00
FILE "09 - Airy.wav" WAVE
TRACK 09 AUDIO
TITLE "Airy"
PERFORMER "Sadao Watanabe"
INDEX 01 00:00:00
FILE "10 - Tembea.wav" WAVE
TRACK 10 AUDIO
TITLE "Tembea"
PERFORMER "Sadao Watanabe"
INDEX 01 00:00:00
FILE "11 - Not Quite a Samba.wav" WAVE
TRACK 11 AUDIO
TITLE "Not Quite a Samba"
PERFORMER "Sadao Watanabe"
INDEX 01 00:00:00
FILE "12 - My Dear Life.wav" WAVE
TRACK 12 AUDIO
TITLE "My Dear Life"
PERFORMER "Sadao Watanabe"
INDEX 01 00:00:00

Этот торрент недоступен для скачивания без регистрации, однако доступен по публичной magnet-ссылке (источники с публичных трекеров). Перед использованием ссылки прочтите, пожалуйста Пользовательское соглашение, а также как можно дольше оставайтесь на раздаче! Для того, чтобы скачать сам торрент-файл (который видит больше источников), а также для того, чтобы поблагодарить релизера, вам необходимо зарегистрироваться. Если регистрироваться лень - вы можете также попробовать скачать релиз по нашим партнерским ссылкам ниже. Кроме того, зарегистрированным пользователям не показывается всплывающая реклама при скачивании.

[underver.se].t226113.torrent
Трекер: Зарегистрирован   [ 01.11.2021 17:40 ]  
Статус: проверено (by Бишеп at 01.11.2021 17:40)
Поблагодарили: пока никто не поблагодарил...
Тип торрента: публичный - доступные источники с открытых трекеров: 
Размер: 449 MB (занимает 0.1 DVDR, для записи нужно 1 болванка DVDR/RW)
 
 

Яндекс.Метрика powered by Sphinx


В Н И М А Н И Е
Сайт не распространяет и не хранит электронные версии произведений, а лишь бесплатно и без коммерческой выгоды (не требуя взамен платы,
SMS и т.д.) предоставляет доступ к создаваемому пользователями каталогу ссылок на торрент-файлы, которые содержат только списки хеш-сумм.
Убедительная просьба с жалобами обращаться напрямую к пользователю, разместившему торрент файл.

Вверх