Loading...
Error

(Vocal-Jazz) Nat King Cole - After Midnight [24-bit Hi-Res, Remastered] (1957/2015) [FLAC (tracks), Lossless]

Статистика раздачи
Размер:  916 MB   |    Зарегистрирован:  10 месяцев   |    Скачан:  2 раза

Полного источника не было: 16 дней

Сидов:  0  |  0 KB/s  ]   Личеров:  0  |  0 KB/s  ]

* - сиды/пиры с внешних источников

   
 
Автор Сообщение

Renesans Пол:Муж

10-Ноя-2021 17:03

Nat King Cole - After Midnight [24-bit Hi-Res, Remastered]


Год: 1957/2015
Жанр: Vocal-Jazz
Страна: USA

Продолжительность: 00:42:31
Формат/Кодек: FLAC
Тип рипа: Tracks
Битрейт аудио: Lossless
Разрядность: 24 Bit/192 kHz
Носитель: WEB

Stream
01. Just You, Just Me (03:02)
02. Sweet Lorraine (04:34)
03. Sometimes I'm Happy (04:09)
04. Caravan (02:44)
05. It's Only A Paper Moon (03:04)
06. You're Looking At Me (04:13)
07. The Lonely One (03:45)
08. Don't Let It Go To Your Head (03:10)
09. I Know That You Know (02:29)
10. Blame It On My Youth (04:09)
11. When I Grow Too Old To Dream (03:31)
12. (Get Your Kicks On) Route 66 (03:41)

DR
foobar2000 1.4.6 / Dynamic Range Meter 1.1.1

--------------------------------------------------------------------------------
Analyzed: Nat King Cole / After Midnight (Remastered) (1-5)
None / After Midnight (Remastered) (6)
Various Interprets / After Midnight (Remastered) (7-12)
--------------------------------------------------------------------------------

DR Peak RMS Duration Track
--------------------------------------------------------------------------------
DR10 -1.52 dB -14.55 dB 2:44 04-Caravan (Remastered)
DR10 -1.61 dB -13.71 dB 3:05 05-It's Only A Paper Moon (Remastered)
DR10 -0.99 dB -12.87 dB 2:29 09-I Know That You Know (Remastered)
DR11 -1.71 dB -14.93 dB 3:31 11-When I Grow Too Old To Dream (Remastered)
DR10 -0.71 dB -13.70 dB 3:41 12-(Get Your Kicks On) Route 66
DR11 -1.74 dB -15.16 dB 4:13 06-You're Looking At Me (Remastered)
DR10 -1.25 dB -13.61 dB 3:02 01-Just You, Just Me (Remastered)
DR12 -1.68 dB -15.75 dB 4:34 02-Sweet Lorraine (Remastered)
DR11 -2.05 dB -15.89 dB 4:09 03-Sometimes I'm Happy (Remastered)
DR12 -2.40 dB -16.39 dB 3:46 07-The Lonely One (Remastered)
DR10 -1.86 dB -14.23 dB 3:11 08-Don't Let It Go To Your Head (Remastered)
DR14 -1.42 dB -17.66 dB 4:09 10-Blame It On My Youth (Remastered)
--------------------------------------------------------------------------------

Number of tracks: 12
Official DR value: DR11

Samplerate: 192000 Hz
Channels: 2
Bits per sample: 24
Bitrate: 2966 kbps
Codec: FLAC
================================================================================

Этот торрент недоступен для скачивания без регистрации, однако доступен по публичной magnet-ссылке (источники с публичных трекеров). Перед использованием ссылки прочтите, пожалуйста Пользовательское соглашение, а также как можно дольше оставайтесь на раздаче! Для того, чтобы скачать сам торрент-файл (который видит больше источников), а также для того, чтобы поблагодарить релизера, вам необходимо зарегистрироваться. Если регистрироваться лень - вы можете также попробовать скачать релиз по нашим партнерским ссылкам ниже. Кроме того, зарегистрированным пользователям не показывается всплывающая реклама при скачивании.

[underver.se].t226735.torrent
Трекер: Зарегистрирован   [ 10.11.2021 17:03 ]  
Статус: проверено (by Renesans at 10.11.2021 17:04)
Поблагодарили: пока никто не поблагодарил...
Тип торрента: публичный - доступные источники с открытых трекеров: 
Размер: 916 MB (занимает 0.2 DVDR, для записи нужно 1 болванка DVDR/RW)
 
 

Яндекс.Метрика powered by Sphinx


В Н И М А Н И Е
Сайт не распространяет и не хранит электронные версии произведений, а лишь бесплатно и без коммерческой выгоды (не требуя взамен платы,
SMS и т.д.) предоставляет доступ к создаваемому пользователями каталогу ссылок на торрент-файлы, которые содержат только списки хеш-сумм.
Убедительная просьба с жалобами обращаться напрямую к пользователю, разместившему торрент файл.

Вверх