Loading...
Error

Metallica - 40th Anniversary Shows (Narumi Inatsugu) [2021 г., Thrash Metal, WEB-DL 1080p]

Статистика раздачи
Размер:  17.27 GB   |    Зарегистрирован:  9 месяцев   |    Скачан:  5 раз

Полного источника не было: 1 месяц 2 дня

Сидов:  0  |  0 KB/s  ]   Личеров:  0  |  0 KB/s  ]

* - сиды/пиры с внешних источников

   
 
Автор Сообщение

FiNikola Пол:Муж

25-Дек-2021 14:25

Metallica - 40th Anniversary Shows

Производство: США / Amazon Studios
Жанр: Thrash Metal

Режиссер: Narumi Inatsugu

Описание:
Юбилейный концерт группы Metallica, посвященный 40-летию группы, был снят в течение двух ночей, 17 и 19 декабря 2021 года.

Продолжительность: 04:37:21
Качество видео: WEB-DL 1080p
Субтитры: английские (полные)



Видео: AVC/H.264, 1920х1080, ~10 Mbps
Аудио: AC3, 2 ch, 224 kbps - английский
 
General
Unique ID : 158121232258868042048925519327293136926 (0x76F50AA6A15A06E12968C20E4D10E01E)
Complete name : D:\Temp\Metallica.40th.Anniversary.2021.mkv
Format : Matroska
Format version : Version 4
File size : 17.3 GiB
Duration : 4 h 37 min
Overall bit rate : 8 912 kb/s
Writing library : Lavf57.71.100

Video
ID : 1
Format : AVC
Format/Info : Advanced Video Codec
Format profile : [email protected]
Format settings : CABAC / 4 Ref Frames
Format settings, CABAC : Yes
Format settings, Reference : 4 frames
Codec ID : V_MPEG4/ISO/AVC
Duration : 4 h 37 min
Bit rate mode : Constant
Bit rate : 8 511 kb/s
Nominal bit rate : 10 000 kb/s
Width : 1 920 pixels
Height : 1 080 pixels
Display aspect ratio : 16:9
Frame rate mode : Constant
Frame rate : 29.970 (30000/1001) FPS
Color space : YUV
Chroma subsampling : 4:2:0
Bit depth : 8 bits
Scan type : Progressive
Bits/(Pixel*Frame) : 0.137
Stream size : 16.5 GiB (95%)
Default : Yes
Forced : No

Audio
ID : 2
Format : AC-3
Format/Info : Audio Coding 3
Commercial name : Dolby Digital
Codec ID : A_AC3
Duration : 4 h 37 min
Bit rate mode : Constant
Bit rate : 224 kb/s
Channel(s) : 2 channels
Channel layout : L R
Sampling rate : 48.0 kHz
Frame rate : 31.250 FPS (1536 SPF)
Bit depth : 32 bits
Compression mode : Lossy
Stream size : 444 MiB (3%)
Language : English
Service kind : Complete Main
Default : Yes
Forced : No

Text
ID : 3
Format : UTF-8
Codec ID : S_TEXT/UTF8
Codec ID/Info : UTF-8 Plain Text
Language : English
Default : Yes
Forced : No
Hit the Lights
Creeping Death
Trapped Under Ice
Welcome Home (Sanitarium)
Orion
The Shortest Straw
One
Sad But True
Nothing Else Matters
King Nothing
Fixxxer
Breadfan
No Leaf Clover
Frantic
The Day That Never Comes
Spit Out the Bone
Hardwired
The End Of The Line
Dirty Window
I Disappear
Am I Evil? (Diamond Head cover)
The Memory Remains
Fuel
Bleeding Me
Wasting My Hate
The Unforgiven
Enter Sandman
Harvester Of Sorrow
Master Of Puppets
Fade To Black
Whiplash
Seek & Destroy

Скриншоты:
pic pic pic pic

Этот торрент недоступен для скачивания без регистрации, однако доступен по публичной magnet-ссылке (источники с публичных трекеров). Перед использованием ссылки прочтите, пожалуйста Пользовательское соглашение, а также как можно дольше оставайтесь на раздаче! Для того, чтобы скачать сам торрент-файл (который видит больше источников), а также для того, чтобы поблагодарить релизера, вам необходимо зарегистрироваться. Если регистрироваться лень - вы можете также попробовать скачать релиз по нашим партнерским ссылкам ниже. Кроме того, зарегистрированным пользователям не показывается всплывающая реклама при скачивании.

[underver.se].t231277.torrent
Трекер: Зарегистрирован   [ 25.12.2021 14:25 ]  
Статус: проверено (by FiNikola at 25.12.2021 14:25)
Поблагодарили: пока никто не поблагодарил...
Тип торрента: публичный - доступные источники с открытых трекеров: 
Размер: 17.27 GB (занимает 3.94 DVDR, для записи нужно 4 болванки DVDR/RW)
 
 

Яндекс.Метрика powered by Sphinx


В Н И М А Н И Е
Сайт не распространяет и не хранит электронные версии произведений, а лишь бесплатно и без коммерческой выгоды (не требуя взамен платы,
SMS и т.д.) предоставляет доступ к создаваемому пользователями каталогу ссылок на торрент-файлы, которые содержат только списки хеш-сумм.
Убедительная просьба с жалобами обращаться напрямую к пользователю, разместившему торрент файл.

Вверх