Loading...
Error

(Eurodance, Euro House) E-Rotic - Sex Affairs (1995) [FLAC (Tracks+.Cue), Lossless]

Статистика раздачи
Размер:  393 MB   |    Зарегистрирован:  9 месяцев   |    Скачан:  7 раз

Полного источника не было: 1 день 10 часов

Сидов:  0  |  0 KB/s  ]   Личеров:  0  |  0 KB/s  ]

* - сиды/пиры с внешних источников

   
 
Автор Сообщение

Бишеп Пол:Муж

26-Дек-2021 09:19

E-Rotic - Sex Affairs

Жанр: Eurodance, Euro House
Год выпуска: 1995
Носитель: CD
Производитель диска: Blow Up - 7243 8 22499 2 4, Intercord - INT 845.586
Аудиокодек: FLAC
Тип рипа: Tracks+.CUE
Битрейт аудио: lossless
Продолжительность: 00:51:53


Треклист:
01. Max Don't Have Sex With Your Ex
02. Big Max
03. Sex Me
04. Come On Make Love to Me
05. Fred Come To Bed
06. Wild Love
07. Sex On The Phone
08. Falling For A Witch
09. Take My Love
10. Final Heartbreak
11. Max Don't Have Sex With Your Ex (Remix)
12. Fred Come To Bed (Remix)

Exact Audio Copy V1.3 from 2. September 2016 

EAC extraction logfile from 24. March 2021, 19:56

E-Rotic / Sex Affairs

Used drive : HL-DT-STDVDRAM GH24NSD5 Adapter: 1 ID: 1

Read mode : Secure
Utilize accurate stream : Yes
Defeat audio cache : Yes
Make use of C2 pointers : No

Read offset correction : 6
Overread into Lead-In and Lead-Out : No
Fill up missing offset samples with silence : Yes
Delete leading and trailing silent blocks : No
Null samples used in CRC calculations : Yes
Used interface : Installed external ASPI interface
Gap handling : Appended to previous track

Used output format : User Defined Encoder
Selected bitrate : 1024 kBit/s
Quality : High
Add ID3 tag : No
Command line compressor : D:\Program Files\Exact Audio Copy\Flac\flac.exe
Additional command line options : -V -8 -T "Genre=%genre%" -T "Artist=%artist%" -T "Title=%title%" -T "Album=%albumtitle%" -T "Date=%year%" -T "Tracknumber=%tracknr%" -T "Comment=%comment%" %source%

TOC of the extracted CD

Track | Start | Length | Start sector | End sector
---------------------------------------------------------
1 | 0:00.00 | 3:32.07 | 0 | 15906
2 | 3:32.07 | 4:23.00 | 15907 | 35631
3 | 7:55.07 | 4:00.60 | 35632 | 53691
4 | 11:55.67 | 3:28.33 | 53692 | 69324
5 | 15:24.25 | 3:58.47 | 69325 | 87221
6 | 19:22.72 | 3:59.50 | 87222 | 105196
7 | 23:22.47 | 3:56.68 | 105197 | 122964
8 | 27:19.40 | 3:47.22 | 122965 | 140011
9 | 31:06.62 | 4:59.60 | 140012 | 162496
10 | 36:06.47 | 3:47.08 | 162497 | 179529
11 | 39:53.55 | 6:14.32 | 179530 | 207611
12 | 46:08.12 | 5:45.13 | 207612 | 233499

Track 1

Filename D:\CD-Rips\E-Rotic - Sex Affairs (1995)\01. Max Don't Have Sex With Your Ex.wav

Pre-gap length 0:00:02.00

Peak level 100.0 %
Extraction speed 4.7 X
Track quality 100.0 %
Test CRC 55459ABA
Copy CRC 55459ABA
Accurately ripped (confidence 61) [E6BD7A9D] (AR v2)
Copy OK

Track 2

Filename D:\CD-Rips\E-Rotic - Sex Affairs (1995)\02. Big Max.wav

Pre-gap length 0:00:02.22

Peak level 100.0 %
Extraction speed 5.3 X
Track quality 100.0 %
Test CRC E3AAE6A8
Copy CRC E3AAE6A8
Accurately ripped (confidence 61) [2742AE36] (AR v2)
Copy OK

Track 3

Filename D:\CD-Rips\E-Rotic - Sex Affairs (1995)\03. Sex Me.wav

Pre-gap length 0:00:02.62

Peak level 100.0 %
Extraction speed 5.6 X
Track quality 100.0 %
Test CRC 9248B711
Copy CRC 9248B711
Accurately ripped (confidence 61) [8EEC1489] (AR v2)
Copy OK

Track 4

Filename D:\CD-Rips\E-Rotic - Sex Affairs (1995)\04. Come On Make Love to Me.wav

Pre-gap length 0:00:02.27

Peak level 100.0 %
Extraction speed 5.8 X
Track quality 100.0 %
Test CRC A395A903
Copy CRC A395A903
Accurately ripped (confidence 61) [3DEA9441] (AR v2)
Copy OK

Track 5

Filename D:\CD-Rips\E-Rotic - Sex Affairs (1995)\05. Fred Come To Bed.wav

Pre-gap length 0:00:02.03

Peak level 100.0 %
Extraction speed 6.3 X
Track quality 100.0 %
Test CRC 12B63AEF
Copy CRC 12B63AEF
Accurately ripped (confidence 60) [C5EEE639] (AR v2)
Copy OK

Track 6

Filename D:\CD-Rips\E-Rotic - Sex Affairs (1995)\06. Wild Love.wav

Pre-gap length 0:00:02.00

Peak level 100.0 %
Extraction speed 5.4 X
Track quality 99.9 %
Test CRC F81FCF87
Copy CRC F81FCF87
Accurately ripped (confidence 60) [CCD6D8B2] (AR v2)
Copy OK

Track 7

Filename D:\CD-Rips\E-Rotic - Sex Affairs (1995)\07. Sex On The Phone.wav

Pre-gap length 0:00:01.60

Peak level 100.0 %
Extraction speed 6.9 X
Track quality 100.0 %
Test CRC 3A8B4098
Copy CRC 3A8B4098
Accurately ripped (confidence 61) [CAB5BFFC] (AR v2)
Copy OK

Track 8

Filename D:\CD-Rips\E-Rotic - Sex Affairs (1995)\08. Falling For A Witch.wav

Pre-gap length 0:00:02.40

Peak level 100.0 %
Extraction speed 7.1 X
Track quality 100.0 %
Test CRC 46750A6B
Copy CRC 46750A6B
Accurately ripped (confidence 59) [5A60343A] (AR v2)
Copy OK

Track 9

Filename D:\CD-Rips\E-Rotic - Sex Affairs (1995)\09. Take My Love.wav

Pre-gap length 0:00:02.22

Peak level 100.0 %
Extraction speed 6.5 X
Track quality 99.9 %
Test CRC 12242A57
Copy CRC 12242A57
Accurately ripped (confidence 61) [FF9DDE0B] (AR v2)
Copy OK

Track 10

Filename D:\CD-Rips\E-Rotic - Sex Affairs (1995)\10. Final Heartbreak.wav

Pre-gap length 0:00:02.60

Peak level 100.0 %
Extraction speed 7.6 X
Track quality 100.0 %
Test CRC C3E43DDF
Copy CRC C3E43DDF
Accurately ripped (confidence 61) [ADFA7E3E] (AR v2)
Copy OK

Track 11

Filename D:\CD-Rips\E-Rotic - Sex Affairs (1995)\11. Max Don't Have Sex With Your Ex (Remix).wav

Pre-gap length 0:00:02.15

Peak level 100.0 %
Extraction speed 8.4 X
Track quality 100.0 %
Test CRC C1B4048B
Copy CRC C1B4048B
Accurately ripped (confidence 60) [4D502DCC] (AR v2)
Copy OK

Track 12

Filename D:\CD-Rips\E-Rotic - Sex Affairs (1995)\12. Fred Come To Bed (Remix).wav

Pre-gap length 0:00:02.22

Peak level 93.4 %
Extraction speed 8.7 X
Track quality 100.0 %
Test CRC 7CA624F0
Copy CRC 7CA624F0
Accurately ripped (confidence 58) [25AD5203] (AR v2)
Copy OK

All tracks accurately ripped

No errors occurred

End of status report

==== Log checksum 7EB65C5153385D0FC9FC75BFD0D9335AB1DEBCA57BBAC5ECF6E9284A6DBE3205 ====
REM GENRE Eurodance 
REM DATE 1995
REM DISCID A70C290C
REM COMMENT "ExactAudioCopy v1.3"
PERFORMER "E-Rotic"
TITLE "Sex Affairs"
REM COMPOSER ""
FILE "01. Max Don't Have Sex With Your Ex.wav" WAVE
TRACK 01 AUDIO
TITLE "Max Don't Have Sex With Your Ex"
PERFORMER "E-Rotic"
REM COMPOSER ""
INDEX 01 00:00:00
TRACK 02 AUDIO
TITLE "Big Max"
PERFORMER "E-Rotic"
REM COMPOSER ""
INDEX 00 03:29:60
FILE "02. Big Max.wav" WAVE
INDEX 01 00:00:00
TRACK 03 AUDIO
TITLE "Sex Me"
PERFORMER "E-Rotic"
REM COMPOSER ""
INDEX 00 04:20:13
FILE "03. Sex Me.wav" WAVE
INDEX 01 00:00:00
TRACK 04 AUDIO
TITLE "Come On Make Love to Me"
PERFORMER "E-Rotic"
REM COMPOSER ""
INDEX 00 03:58:33
FILE "04. Come On Make Love to Me.wav" WAVE
INDEX 01 00:00:00
TRACK 05 AUDIO
TITLE "Fred Come To Bed"
PERFORMER "E-Rotic"
REM COMPOSER ""
INDEX 00 03:26:30
FILE "05. Fred Come To Bed.wav" WAVE
INDEX 01 00:00:00
TRACK 06 AUDIO
TITLE "Wild Love"
PERFORMER "E-Rotic"
REM COMPOSER ""
INDEX 00 03:56:47
FILE "06. Wild Love.wav" WAVE
INDEX 01 00:00:00
TRACK 07 AUDIO
TITLE "Sex On The Phone"
PERFORMER "E-Rotic"
REM COMPOSER ""
INDEX 00 03:57:65
FILE "07. Sex On The Phone.wav" WAVE
INDEX 01 00:00:00
TRACK 08 AUDIO
TITLE "Falling For A Witch"
PERFORMER "E-Rotic"
REM COMPOSER ""
INDEX 00 03:54:28
FILE "08. Falling For A Witch.wav" WAVE
INDEX 01 00:00:00
TRACK 09 AUDIO
TITLE "Take My Love"
PERFORMER "E-Rotic"
REM COMPOSER ""
INDEX 00 03:45:00
FILE "09. Take My Love.wav" WAVE
INDEX 01 00:00:00
TRACK 10 AUDIO
TITLE "Final Heartbreak"
PERFORMER "E-Rotic"
REM COMPOSER ""
INDEX 00 04:57:00
FILE "10. Final Heartbreak.wav" WAVE
INDEX 01 00:00:00
TRACK 11 AUDIO
TITLE "Max Don't Have Sex With Your Ex (Remix)"
PERFORMER "E-Rotic"
REM COMPOSER ""
INDEX 00 03:44:68
FILE "11. Max Don't Have Sex With Your Ex (Remix).wav" WAVE
INDEX 01 00:00:00
TRACK 12 AUDIO
TITLE "Fred Come To Bed (Remix)"
PERFORMER "E-Rotic"
REM COMPOSER ""
INDEX 00 06:12:10
FILE "12. Fred Come To Bed (Remix).wav" WAVE
INDEX 01 00:00:00

Этот торрент недоступен для скачивания без регистрации, однако доступен по публичной magnet-ссылке (источники с публичных трекеров). Перед использованием ссылки прочтите, пожалуйста Пользовательское соглашение, а также как можно дольше оставайтесь на раздаче! Для того, чтобы скачать сам торрент-файл (который видит больше источников), а также для того, чтобы поблагодарить релизера, вам необходимо зарегистрироваться. Если регистрироваться лень - вы можете также попробовать скачать релиз по нашим партнерским ссылкам ниже. Кроме того, зарегистрированным пользователям не показывается всплывающая реклама при скачивании.

[underver.se].t231349.torrent
Трекер: Зарегистрирован   [ 26.12.2021 09:19 ]  
Статус: проверено (by Бишеп at 26.12.2021 09:20)
Поблагодарили: пока никто не поблагодарил...
Тип торрента: публичный - доступные источники с открытых трекеров: 
Размер: 393 MB (занимает 0.09 DVDR, для записи нужно 1 болванка DVDR/RW)
 
 

Яндекс.Метрика powered by Sphinx


В Н И М А Н И Е
Сайт не распространяет и не хранит электронные версии произведений, а лишь бесплатно и без коммерческой выгоды (не требуя взамен платы,
SMS и т.д.) предоставляет доступ к создаваемому пользователями каталогу ссылок на торрент-файлы, которые содержат только списки хеш-сумм.
Убедительная просьба с жалобами обращаться напрямую к пользователю, разместившему торрент файл.

Вверх