Loading...
Error

(Vocal Jazz, Funk) Kurt Elling - SuperBlue (2021) [FLAC (Tracks+.Cue), Lossless]

Статистика раздачи
Размер:  270 MB   |    Зарегистрирован:  9 месяцев   |    Скачан:  7 раз

Полного источника не было: 19 дней

Сидов:  0  |  0 KB/s  ]   Личеров:  0  |  0 KB/s  ]

* - сиды/пиры с внешних источников

   
 
Автор Сообщение

Бишеп Пол:Муж

31-Дек-2021 17:13

Kurt Elling - SuperBlue

Жанр: Vocal Jazz, Funk
Год выпуска: 2021
Носитель: CD
Производитель диска: Edition Records - EDN1174
Аудиокодек: FLAC
Тип рипа: Tracks+.CUE
Битрейт аудио: lossless
Продолжительность: 00:48:41


Треклист:
01. SuperBlue (04:45)
02. Sassy (04:18)
03. Manic Panic Epiphanic (05:29)
04. Where to Find It (04:51)
05. Can't Make It with Your Brain (05:49)
06. The Seed (04:23)
07. Dharma Bums (05:59)
08. Circus (04:56)
09. Endless Lawns (06:54)
10. This Is How We Do (01:17)

Exact Audio Copy V1.6 from 23. October 2020 

EAC extraction logfile from 26. November 2021, 17:25

Kurt Elling / SuperBlue

Used drive : HL-DT-STDVDRAM GP65NB60 Adapter: 1 ID: 0

Read mode : Secure
Utilize accurate stream : Yes
Defeat audio cache : Yes
Make use of C2 pointers : No

Read offset correction : 6
Overread into Lead-In and Lead-Out : No
Fill up missing offset samples with silence : Yes
Delete leading and trailing silent blocks : No
Null samples used in CRC calculations : Yes
Used interface : Native Win32 interface for Win NT & 2000
Gap handling : Appended to previous track

Used output format : User Defined Encoder
Selected bitrate : 1024 kBit/s
Quality : High
Add ID3 tag : No
Command line compressor : C:\Program Files (x86)\Exact Audio Copy\Flac\flac.exe
Additional command line options : -8 -V -T "ARTIST=%artist%" -T "TITLE=%title%" -T "ALBUM=%albumtitle%" -T "DATE=%year%" -T "TRACKNUMBER=%tracknr%" -T "GENRE=%genre%" -T "PERFORMER=%albuminterpret%" -T "COMPOSER=%composer%" -T "ALBUMARTIST=%albumartist%" -T "DISCNUMBER=%cdnumber%" -T "TOTALDISCS=%totalcds%" -T "TOTALTRACKS=%numtracks%" -T "COMMENT=%comment%" %source% -o %dest%

TOC of the extracted CD

Track | Start | Length | Start sector | End sector
---------------------------------------------------------
1 | 0:00.00 | 4:45.21 | 0 | 21395
2 | 4:45.21 | 4:18.18 | 21396 | 40763
3 | 9:03.39 | 5:29.31 | 40764 | 65469
4 | 14:32.70 | 4:50.74 | 65470 | 87293
5 | 19:23.69 | 5:49.22 | 87294 | 113490
6 | 25:13.16 | 4:22.48 | 113491 | 133188
7 | 29:35.64 | 5:58.51 | 133189 | 160089
8 | 35:34.40 | 4:55.58 | 160090 | 182272
9 | 40:30.23 | 6:54.25 | 182273 | 213347
10 | 47:24.48 | 1:16.42 | 213348 | 219089

Track 1

Filename D:\EAC Rips\Kurt Elling - SuperBlue (2021) {EDN1174} [CD FLAC]\01 - SuperBlue.wav

Pre-gap length 0:00:02.00

Peak level 99.8 %
Extraction speed 2.8 X
Track quality 100.0 %
Test CRC 146A416D
Copy CRC 146A416D
Track not present in AccurateRip database
Copy OK

Track 2

Filename D:\EAC Rips\Kurt Elling - SuperBlue (2021) {EDN1174} [CD FLAC]\02 - Sassy.wav

Peak level 99.8 %
Extraction speed 3.1 X
Track quality 100.0 %
Test CRC F69B86CE
Copy CRC F69B86CE
Track not present in AccurateRip database
Copy OK

Track 3

Filename D:\EAC Rips\Kurt Elling - SuperBlue (2021) {EDN1174} [CD FLAC]\03 - Manic Panic Epiphanic.wav

Peak level 99.8 %
Extraction speed 3.5 X
Track quality 100.0 %
Test CRC 9E521A83
Copy CRC 9E521A83
Track not present in AccurateRip database
Copy OK

Track 4

Filename D:\EAC Rips\Kurt Elling - SuperBlue (2021) {EDN1174} [CD FLAC]\04 - Where To Find It.wav

Peak level 98.0 %
Extraction speed 3.7 X
Track quality 100.0 %
Test CRC 906A7BCC
Copy CRC 906A7BCC
Track not present in AccurateRip database
Copy OK

Track 5

Filename D:\EAC Rips\Kurt Elling - SuperBlue (2021) {EDN1174} [CD FLAC]\05 - Can't Make It With Your Brain.wav

Peak level 99.8 %
Extraction speed 4.0 X
Track quality 100.0 %
Test CRC E9CF1647
Copy CRC E9CF1647
Track not present in AccurateRip database
Copy OK

Track 6

Filename D:\EAC Rips\Kurt Elling - SuperBlue (2021) {EDN1174} [CD FLAC]\06 - The Seed.wav

Peak level 99.8 %
Extraction speed 4.1 X
Track quality 100.0 %
Test CRC C2567E58
Copy CRC C2567E58
Track not present in AccurateRip database
Copy OK

Track 7

Filename D:\EAC Rips\Kurt Elling - SuperBlue (2021) {EDN1174} [CD FLAC]\07 - Dharma Bums.wav

Peak level 99.8 %
Extraction speed 4.6 X
Track quality 100.0 %
Test CRC 129C21F1
Copy CRC 129C21F1
Track not present in AccurateRip database
Copy OK

Track 8

Filename D:\EAC Rips\Kurt Elling - SuperBlue (2021) {EDN1174} [CD FLAC]\08 - Circus.wav

Peak level 99.8 %
Extraction speed 4.0 X
Track quality 99.9 %
Test CRC 863A0ED2
Copy CRC 863A0ED2
Track not present in AccurateRip database
Copy OK

Track 9

Filename D:\EAC Rips\Kurt Elling - SuperBlue (2021) {EDN1174} [CD FLAC]\09 - Endless Lawns.wav

Peak level 98.2 %
Extraction speed 4.4 X
Track quality 99.9 %
Test CRC 002E0E48
Copy CRC 002E0E48
Track not present in AccurateRip database
Copy OK

Track 10

Filename D:\EAC Rips\Kurt Elling - SuperBlue (2021) {EDN1174} [CD FLAC]\10 - This Is How We Do.wav

Peak level 99.8 %
Extraction speed 3.6 X
Track quality 100.0 %
Test CRC 4DACEEDC
Copy CRC 4DACEEDC
Track not present in AccurateRip database
Copy OK

None of the tracks are present in the AccurateRip database

No errors occurred

End of status report

---- CUETools DB Plugin V2.1.6

[CTDB TOCID: kodDR2VlaikxsSfk5AQ6FsEmGks-] found
Submit result: kodDR2VlaikxsSfk5AQ6FsEmGks- has been confirmed
Track | CTDB Status
1 | (3/3) Accurately ripped
2 | (3/3) Accurately ripped
3 | (3/3) Accurately ripped
4 | (3/3) Accurately ripped
5 | (3/3) Accurately ripped
6 | (3/3) Accurately ripped
7 | (3/3) Accurately ripped
8 | (3/3) Accurately ripped
9 | (3/3) Accurately ripped
10 | (3/3) Accurately ripped

==== Log checksum FD05B2B7C34B8846B7B3A633DB2F9273C932E8CAC62E41CC660AAD48C866C3A8 ====
REM GENRE Jazz 
REM DATE 2021
REM DISCID 8E0B690A
REM COMMENT "ExactAudioCopy v1.6"
PERFORMER "Kurt Elling"
TITLE "SuperBlue"
FILE "01 - SuperBlue.wav" WAVE
TRACK 01 AUDIO
TITLE "SuperBlue"
PERFORMER "Kurt Elling"
ISRC GBVEV2100031
INDEX 01 00:00:00
FILE "02 - Sassy.wav" WAVE
TRACK 02 AUDIO
TITLE "Sassy"
PERFORMER "Kurt Elling"
ISRC GBVEV2100032
INDEX 01 00:00:00
FILE "03 - Manic Panic Epiphanic.wav" WAVE
TRACK 03 AUDIO
TITLE "Manic Panic Epiphanic"
PERFORMER "Kurt Elling"
ISRC GBVEV2100033
INDEX 01 00:00:00
FILE "04 - Where to Find It.wav" WAVE
TRACK 04 AUDIO
TITLE "Where to Find It"
PERFORMER "Kurt Elling"
ISRC GBVEV2100034
INDEX 01 00:00:00
FILE "05 - Can't Make It with Your Brain.wav" WAVE
TRACK 05 AUDIO
TITLE "Can't Make It with Your Brain"
PERFORMER "Kurt Elling"
ISRC GBVEV2100035
INDEX 01 00:00:00
FILE "06 - The Seed.wav" WAVE
TRACK 06 AUDIO
TITLE "The Seed"
PERFORMER "Kurt Elling"
ISRC GBVEV2100036
INDEX 01 00:00:00
FILE "07 - Dharma Bums.wav" WAVE
TRACK 07 AUDIO
TITLE "Dharma Bums"
PERFORMER "Kurt Elling"
ISRC GBVEV2100037
INDEX 01 00:00:00
FILE "08 - Circus.wav" WAVE
TRACK 08 AUDIO
TITLE "Circus"
PERFORMER "Kurt Elling"
ISRC GBVEV2100037
INDEX 01 00:00:00
FILE "09 - Endless Lawns.wav" WAVE
TRACK 09 AUDIO
TITLE "Endless Lawns"
PERFORMER "Kurt Elling"
ISRC GBVEV2100039
INDEX 01 00:00:00
FILE "10 - This Is How We Do.wav" WAVE
TRACK 10 AUDIO
TITLE "This Is How We Do"
PERFORMER "Kurt Elling"
ISRC GBVEV2100040
INDEX 01 00:00:00

Этот торрент недоступен для скачивания без регистрации, однако доступен по публичной magnet-ссылке (источники с публичных трекеров). Перед использованием ссылки прочтите, пожалуйста Пользовательское соглашение, а также как можно дольше оставайтесь на раздаче! Для того, чтобы скачать сам торрент-файл (который видит больше источников), а также для того, чтобы поблагодарить релизера, вам необходимо зарегистрироваться. Если регистрироваться лень - вы можете также попробовать скачать релиз по нашим партнерским ссылкам ниже. Кроме того, зарегистрированным пользователям не показывается всплывающая реклама при скачивании.

[underver.se].t231850.torrent
Трекер: Зарегистрирован   [ 31.12.2021 17:13 ]  
Статус: проверено (by Бишеп at 31.12.2021 17:14)
Поблагодарили: пока никто не поблагодарил...
Тип торрента: публичный - доступные источники с открытых трекеров: 
Размер: 270 MB (занимает 0.06 DVDR, для записи нужно 1 болванка DVDR/RW)
 
 

Яндекс.Метрика powered by Sphinx


В Н И М А Н И Е
Сайт не распространяет и не хранит электронные версии произведений, а лишь бесплатно и без коммерческой выгоды (не требуя взамен платы,
SMS и т.д.) предоставляет доступ к создаваемому пользователями каталогу ссылок на торрент-файлы, которые содержат только списки хеш-сумм.
Убедительная просьба с жалобами обращаться напрямую к пользователю, разместившему торрент файл.

Вверх