Loading...
Error

Новогодняя сказка 2022 [2021., ТВ-шоу, WEBRip 1080p]

Статистика раздачи
Размер:  4.21 GB   |    Зарегистрирован:  8 месяцев   |    Скачан:  10 раз

Полного источника не было: 5 часов

Сидов:  0  |  0 KB/s  ]   Личеров:  0  |  0 KB/s  ]

* - сиды/пиры с внешних источников

   
 
Автор Сообщение

FiNikola Пол:Муж

31-Дек-2021 20:29

Новогодняя сказка 2022

Производство: Россия | «ВайТ Медиа»
Телекомпания: НТВ
Жанр: ТВ-шоу

Описание:
В Новогоднюю ночь, Дед Мороз отправит зрителей в Сказочную страну. Там мы встретим Бабу Ягу, Кощея Бессмертного, Снежную Королеву и Кая, Емелю на печи, Водяного, Русалку, Золотую рыбку, Ивана-царевича, Василису Прекрасную, Царевну-Несмеяну и...
В этих волшебных образах предстанут Валерия, Игорь Крутой, Слава, Николай Басков, Любовь Успенская, Григорий Лепс, Стас Михайлов, Кристина Орбакайте, Денис Клявер, Жасмин, Зара, Михаил Шуфутинский, Таисия Повалий, Виктория Кохана, Артём Качер, Polina, Наталья Гордиенко, Александр Иванов, Виктория Дайнеко, Иосиф Пригожин, Ярослав Сумишевский, группа «Фабрика» и Артур Пирожков.

Продолжительность: 02:09:04
Качество видео: WEBRip
Субтитры: Русские

Видео: AVC/H.264, 1920x1080, ~4538 kbps
Аудио: AAC, 2 ch, 128 kbps
 
General
Unique ID : 87194763266272449483566118085403320184 (0x419919BE179B7B1D17A7DF5B5DAF9F78)
Complete name : E:\Новогодняя_сказка_2022_1080p.mkv
Format : Matroska
Format version : Version 4
File size : 4.21 GiB
Duration : 2 h 9 min
Overall bit rate : 4 668 kb/s
Encoded date : UTC 2021-12-31 17:51:08
Writing application : mkvmerge v64.0.0 ('Willows') 64-bit
Writing library : libebml v1.4.2 + libmatroska v1.6.4

Video
ID : 1
Format : AVC
Format/Info : Advanced Video Codec
Format profile : [email protected]
Format settings : CABAC / 3 Ref Frames
Format settings, CABAC : Yes
Format settings, ReFrames : 3 frames
Codec ID : V_MPEG4/ISO/AVC
Duration : 2 h 9 min
Bit rate : 4 538 kb/s
Width : 1 920 pixels
Height : 1 080 pixels
Display aspect ratio : 16:9
Frame rate mode : Constant
Frame rate : 25.000 FPS
Color space : YUV
Chroma subsampling : 4:2:0
Bit depth : 8 bits
Scan type : Progressive
Bits/(Pixel*Frame) : 0.088
Stream size : 4.09 GiB (97%)
Default : Yes
Forced : No
Color range : Limited
Color primaries : BT.709
Transfer characteristics : BT.709
Matrix coefficients : BT.709

Audio
ID : 2
Format : AAC LC
Format/Info : Advanced Audio Codec Low Complexity
Codec ID : A_AAC-2
Duration : 2 h 9 min
Bit rate : 128 kb/s
Channel(s) : 2 channels
Channel layout : L R
Sampling rate : 44.1 kHz
Frame rate : 43.066 FPS (1024 SPF)
Compression mode : Lossy
Delay relative to video : 12 ms
Stream size : 118 MiB (3%)
Language : English
Default : Yes
Forced : No

Text
ID : 3
Format : UTF-8
Codec ID : S_TEXT/UTF8
Codec ID/Info : UTF-8 Plain Text
Duration : 2 h 9 min
Bit rate : 99 b/s
Count of elements : 1605
Stream size : 94.2 KiB (0%)
Default : Yes
Forced : No
pic pic pic pic pic

Этот торрент недоступен для скачивания без регистрации, однако доступен по публичной magnet-ссылке (источники с публичных трекеров). Перед использованием ссылки прочтите, пожалуйста Пользовательское соглашение, а также как можно дольше оставайтесь на раздаче! Для того, чтобы скачать сам торрент-файл (который видит больше источников), а также для того, чтобы поблагодарить релизера, вам необходимо зарегистрироваться. Если регистрироваться лень - вы можете также попробовать скачать релиз по нашим партнерским ссылкам ниже. Кроме того, зарегистрированным пользователям не показывается всплывающая реклама при скачивании.

[underver.se].t231864.torrent
Трекер: Зарегистрирован   [ 31.12.2021 20:29 ]  
Статус: проверено (by FiNikola at 31.12.2021 20:30)
Поблагодарили: пока никто не поблагодарил...
Тип торрента: публичный - доступные источники с открытых трекеров: 
Размер: 4.21 GB (занимает 0.96 DVDR, для записи нужно 1 болванка DVDR/RW)
 
 

Яндекс.Метрика powered by Sphinx


В Н И М А Н И Е
Сайт не распространяет и не хранит электронные версии произведений, а лишь бесплатно и без коммерческой выгоды (не требуя взамен платы,
SMS и т.д.) предоставляет доступ к создаваемому пользователями каталогу ссылок на торрент-файлы, которые содержат только списки хеш-сумм.
Убедительная просьба с жалобами обращаться напрямую к пользователю, разместившему торрент файл.

Вверх