Loading...
Error

Декстер: Новая кровь (1 сезон: 1-8 серии из 10) / Dexter: New Blood [2021, Детектив, Драма, Триллер WEB-DLRip] MVO (LostFilm)

Статистика раздачи
Размер:  4.93 GB   |    Зарегистрирован:  8 месяцев   |    Скачан:  19 раз

Полного источника не было: 1 день 21 час

Сидов:  0  |  0 KB/s  ]   Личеров:  0  |  0 KB/s  ]

* - сиды/пиры с внешних источников

   
 
Автор Сообщение

Renesans Пол:Муж

03-Янв-2022 17:11

Декстер: Новая кровь / Dexter: New Blood [01x01-08 из 10]


Год выпуска: 2021
Жанр: драма, криминал, детектив
Режиссер-постановщик: Маркос Сига
В главных ролях: Майкл С. Холл, Джек Элкотт, Джулия Джонс, Джонни Секвойя, Алано Миллер, Дженнифер Карпентер, Дэвид Магидофф, Клэнси Браун, Майкл Сирил Крейтон, Кэти Салливан

Описание: Новая кровь». Отвечает за него Клайд Филлипс, создавший первые четыре сезона оригинального «Декстера» — именно их большинство поклонников шоу считают лучшими. Конечно же, не обошлось без возвращения Майкла С. Холла, ведь ни Showtime, ни уже тем более зрители не представляют никого другого в образе очаровательного маньяка. Пусть он сменил солнечный Майами на заснеженный городишко Айрон Лейк, спрятал ножи и запачканный кровью фартук куда подальше, но убийственная натура осталась при нем, а значит, зрители вновь увидят худшее и лучшее в знаменитом Декстере Моргане.

Знакомьтесь, Джим Линдсэй (Майкл С. Холл), законопослушный житель городка Айрон Лейк. Он работает продавцом в охотничьем магазине, никому не досаждает и встречается с местным шерифом Анджелой (Джулия Джонс). Однако никто из добродушных обитателей города не знает, что в прошлой жизни Джим был плохим парнем. Десять лет назад его звали Декстер Морган. Работая судмедэкспертом в полиции Майами, он по совместительству был серийным убийцей, который расправлялся с избежавшими наказания преступниками и всегда выходил сухим из воды. Те времена остались в прошлом, и сейчас Декстер, он же Джим, не может выстрелить даже в оленя. Все бы шло тихо-гладко, если бы в жизни экс-маньяка внезапно не возникла парочка обстоятельств, из-за которых у него вновь появляется непреодолимое желание перейти на темную сторону. Соблазн слишком велик, и пусть Джим Линдсэй не убил ни единой живой души, но это лишь пока…



Страна: США
Студия: Showtime
Продолжительность: ~00:58:00 серия
Перевод: Профессиональный (многоголосый, закадровый) LostFilm

Качество: WEB-DLRip
Формат: AVI
Видео: 720x304 at 23.976 fps, XviD, ~1500 kbps avg
Звук: Russian: 48 kHz, MP3, 2/0 (L,R) ch, ~128 kbps avg |Многоголосый закадровый, LostFilm|
Субтитры: None

***Примечание: Без рекламы
01. Cold Snap / Резкий срыв
02. Storm of Fuck / Охренительный поворот
03. Smoke Signals / Дымовые сигналы
04. H Is for Hero / "Г" - значит "Герой"
05. Runaway / Побег
06. Too Many Tuna Sandwiches / Слишком много бутербродов с тунцом
07. Skin of Her Teeth / Кожа на её зубах
08. Unfair Game /
09. The Family Business /
10. Sins of the Father /
Общее
Полное имя : Dexter.New.Blood.S01E01.avi
Формат : AVI
Формат/Информация : Audio Video Interleave
Размер файла : 685 Мбайт
Продолжительность : 57 м. 56 с.
Общий поток : 1 653 Кбит/сек
Программа кодирования : VirtualDubMod 1.5.10.3 (build 2550/release)
Библиотека кодирования : VirtualDubMod build 2550/release

Видео
Идентификатор : 0
Формат : MPEG-4 Visual
Профиль формата : Advanced [email protected]
Настройки формата : BVOP1 / Custom Matrix
Параметр BVOP формата : 1
Параметр QPel формата : Нет
Параметр GMC формата : Без точки перехода
Параметр матрицы формата : Выборочная
Идентификатор кодека : XVID
Идентификатор кодека/Подсказка : XviD
Продолжительность : 57 м. 56 с.
Битрейт : 1 516 Кбит/сек
Ширина : 720 пикселей
Высота : 304 пикселя
Соотношение сторон : 2,35:1
Частота кадров : 23,976 (24000/1001) кадра/сек
Цветовое пространство : YUV
Субдискретизация насыщенности : 4:2:0
Битовая глубина : 8 бит
Тип развёртки : Прогрессивная
Метод сжатия : С потерями
Бит/(Пиксели*Кадры) : 0.289
Размер потока : 628 Мбайт (92%)
Библиотека кодирования : XviD 73

Аудио
Идентификатор : 1
Формат : MPEG Audio
Версия формата : Version 1
Профиль формата : Layer 3
Настройки формата : Joint stereo / MS Stereo
Идентификатор кодека : 55
Идентификатор кодека/Подсказка : MP3
Продолжительность : 57 м. 56 с.
Вид битрейта : Постоянный
Битрейт : 128 Кбит/сек
Каналы : 2 канала
Частота : 48,0 КГц
Метод сжатия : С потерями
Размер потока : 53,0 Мбайт (8%)
Выравнивание : Соединение по промежуткам
Продолжительность промежутка : 42 мс. (1,00 видеокадр)
Время предзагрузки промежутка : 504 мс.
Когда раздача ведётся путём добавления новых серий, при каждом добавлении создётся новый торрент. Чтобы начать докачку новой серии, пользователям необходимо сделать следующее:
(1) остановить скачивание,
(2) удалить старый торрент у себя из клиента (старые серии удалять не надо),
(3) скачать новый торрент и запустить его у себя в клиенте вместо старого, при этом указать клиенту путь в старую папку, куда и должно происходить скачивание новых серий.
Ваш клиент при этом должен произвести хеширование (проверку) старой папки (если не производит сам - помогите ему сделать это), и будет докачивать только те серии, которых у вас ещё нет. Старые серии при этом не удаляются, а продолжают раздаваться!
Eсли вы уже удалили старые серии, то предотвратить повторную закачку старых серий можно, отжав галочку в соответствующих местах при запуске нового торрента. По возможности, желательно не удалять старые серии как можно дольше, чтобы релизер не столько продолжал раздавать старые серии, а смог сконцентрироваться на новых.

Этот торрент недоступен для скачивания без регистрации, однако доступен по публичной magnet-ссылке (источники с публичных трекеров). Перед использованием ссылки прочтите, пожалуйста Пользовательское соглашение, а также как можно дольше оставайтесь на раздаче! Для того, чтобы скачать сам торрент-файл (который видит больше источников), а также для того, чтобы поблагодарить релизера, вам необходимо зарегистрироваться. Если регистрироваться лень - вы можете также попробовать скачать релиз по нашим партнерским ссылкам ниже. Кроме того, зарегистрированным пользователям не показывается всплывающая реклама при скачивании.

[underver.se].t232107.torrent
Трекер: Зарегистрирован   [ 03.01.2022 17:11 ]  
Статус: T временная (by Robbertta at 03.01.2022 19:09)
Поблагодарили: пока никто не поблагодарил...
Тип торрента: публичный - доступные источники с открытых трекеров: 
Размер: 4.93 GB (занимает 1.13 DVDR, для записи нужно 2 болванки DVDR/RW)
 
 

Яндекс.Метрика powered by Sphinx


В Н И М А Н И Е
Сайт не распространяет и не хранит электронные версии произведений, а лишь бесплатно и без коммерческой выгоды (не требуя взамен платы,
SMS и т.д.) предоставляет доступ к создаваемому пользователями каталогу ссылок на торрент-файлы, которые содержат только списки хеш-сумм.
Убедительная просьба с жалобами обращаться напрямую к пользователю, разместившему торрент файл.

Вверх