Loading...
Error

(Fusion, Jazz Rock) Ghost Rhythms - Spectral Music (2021) [FLAC (Tracks+.Cue), Lossless]

Статистика раздачи
Размер:  565 MB   |    Зарегистрирован:  9 месяцев   |    Скачан:  3 раза

Полного источника не было: 2 месяца 21 день

Сидов:  0  |  0 KB/s  ]   Личеров:  0  |  0 KB/s  ]

* - сиды/пиры с внешних источников

   
 
Автор Сообщение

Бишеп Пол:Муж

03-Янв-2022 17:24

Ghost Rhythms - Spectral Music

Жанр: Fusion, Jazz Rock
Год выпуска: 2021
Носитель: CD
Производитель диска: Cuneiform Records - RUNE 486
Аудиокодек: FLAC
Тип рипа: Tracks+.CUE
Битрейт аудио: lossless
Продолжительность: 01:14:29


Треклист:
01. Parapente / Paraglider
02. Thoughtography / Thoughtography
03. Odradek / Odradek
04. Le Mont Marsal / Mount Marsal
05. À Distance / A Distance
06. Spectral Music, 1 / Spectral Music, 1
07. Vie de Wyatt Hopper / The Life of Wyatt Hopper
08. Spectral Music, 2 / Spectral Music, 2
09. L’Autre Versant / The Other Side
10. Uchimizu / Uchimizu
11. Tumulte Opaque / Opaque Uproar

Exact Audio Copy V1.0 beta 4 from 7. December 2014 

EAC extraction logfile from 3. December 2021, 16:54

Ghost Rhythms / Spectral Music

Used drive : ASUS BC-12B1ST Adapter: 1 ID: 0

Read mode : Secure
Utilize accurate stream : Yes
Defeat audio cache : Yes
Make use of C2 pointers : No

Read offset correction : 702
Overread into Lead-In and Lead-Out : No
Fill up missing offset samples with silence : Yes
Delete leading and trailing silent blocks : No
Null samples used in CRC calculations : Yes
Used interface : Native Win32 interface for Win NT & 2000
Gap handling : Appended to previous track

Used output format : User Defined Encoder
Selected bitrate : 768 kBit/s
Quality : High
Add ID3 tag : No
Command line compressor : C:\Program Files (x86)\Exact Audio Copy\FLAC\FLAC.EXE
Additional command line options : -6 -V -T "ARTIST=%artist%" -T "TITLE=%title%" -T "ALBUM=%albumtitle%" -T "DATE=%year%" -T "TRACKNUMBER=%tracknr%" -T "GENRE=%genre%" -T "COMMENT=%comment%" -T "BAND=%albuminterpret%" -T "ALBUMARTIST=%albuminterpret%" -T "COMPOSER=%composer%" %haslyrics%--tag-from-file=LYRICS="%lyricsfile%"%haslyrics% -T "DISCNUMBER=%cdnumber%" -T "TOTALDISCS=%totalcds%" -T "TOTALTRACKS=%numtracks%" %hascover%--picture="%coverfile%"%hascover% %source% -o %dest%

TOC of the extracted CD

Track | Start | Length | Start sector | End sector
---------------------------------------------------------
1 | 0:00.00 | 3:36.70 | 0 | 16269
2 | 3:36.70 | 6:15.48 | 16270 | 44442
3 | 9:52.43 | 6:43.74 | 44443 | 74741
4 | 16:36.42 | 9:56.65 | 74742 | 119506
5 | 26:33.32 | 1:39.26 | 119507 | 126957
6 | 28:12.58 | 10:43.05 | 126958 | 175187
7 | 38:55.63 | 1:40.04 | 175188 | 182691
8 | 40:35.67 | 7:57.43 | 182692 | 218509
9 | 48:33.35 | 9:28.35 | 218510 | 261144
10 | 58:01.70 | 8:00.05 | 261145 | 297149
11 | 66:02.00 | 8:27.21 | 297150 | 335195

Track 1

Filename C:\EAC\01. Paraglider.wav

Pre-gap length 0:00:02.00

Peak level 98.6 %
Extraction speed 1.9 X
Track quality 100.0 %
Test CRC 9FEDF4C5
Copy CRC 9FEDF4C5
Track not present in AccurateRip database
Copy OK

Track 2

Filename C:\EAC\02. Thoughtography.wav

Peak level 100.0 %
Extraction speed 2.2 X
Track quality 100.0 %
Test CRC 29911103
Copy CRC 29911103
Track not present in AccurateRip database
Copy OK

Track 3

Filename C:\EAC\03. Odradek.wav

Pre-gap length 0:00:02.84

Peak level 98.6 %
Extraction speed 2.5 X
Track quality 100.0 %
Test CRC 577AC5E4
Copy CRC 577AC5E4
Track not present in AccurateRip database
Copy OK

Track 4

Filename C:\EAC\04. Mount Marsal.wav

Pre-gap length 0:00:02.76

Peak level 98.6 %
Extraction speed 2.9 X
Track quality 100.0 %
Test CRC C207FB0C
Copy CRC C207FB0C
Track not present in AccurateRip database
Copy OK

Track 5

Filename C:\EAC\05. A Distance.wav

Pre-gap length 0:00:03.49

Peak level 93.1 %
Extraction speed 2.4 X
Track quality 100.0 %
Test CRC CCD5D0DA
Copy CRC CCD5D0DA
Track not present in AccurateRip database
Copy OK

Track 6

Filename C:\EAC\06. Spectral Music, 1.wav

Pre-gap length 0:00:02.73

Peak level 98.6 %
Extraction speed 2.9 X
Track quality 99.9 %
Test CRC 71508235
Copy CRC 71508235
Track not present in AccurateRip database
Copy OK

Track 7

Filename C:\EAC\07. The Life of Wyatt Hopper.wav

Pre-gap length 0:00:04.06

Peak level 96.3 %
Extraction speed 2.4 X
Track quality 100.0 %
Test CRC 83461118
Copy CRC 83461118
Track not present in AccurateRip database
Copy OK

Track 8

Filename C:\EAC\08. Spectral Music, 2.wav

Peak level 96.3 %
Extraction speed 3.6 X
Track quality 100.0 %
Test CRC A50D0DB6
Copy CRC A50D0DB6
Track not present in AccurateRip database
Copy OK

Track 9

Filename C:\EAC\09. The Other Side.wav

Pre-gap length 0:00:01.90

Peak level 98.6 %
Extraction speed 3.9 X
Track quality 100.0 %
Test CRC 03E0F406
Copy CRC 03E0F406
Track not present in AccurateRip database
Copy OK

Track 10

Filename C:\EAC\10. Uchimizu.wav

Pre-gap length 0:00:02.28

Peak level 98.6 %
Extraction speed 3.5 X
Track quality 99.9 %
Test CRC 04B2836A
Copy CRC 04B2836A
Track not present in AccurateRip database
Copy OK

Track 11

Filename C:\EAC\11. Opaque Uproar.wav

Pre-gap length 0:00:02.93

Peak level 98.6 %
Extraction speed 3.6 X
Track quality 99.9 %
Test CRC 65E16FAA
Copy CRC 65E16FAA
Track not present in AccurateRip database
Copy OK

None of the tracks are present in the AccurateRip database

No errors occurred

End of status report

---- CUETools DB Plugin V2.1.4

[CTDB TOCID: m.cs7HnmsyGNqpGHk_gB8jKmjvQ-] found
Submit result: m.cs7HnmsyGNqpGHk_gB8jKmjvQ- has been confirmed
Track | CTDB Status
1 | (1/1) Accurately ripped
2 | (1/1) Accurately ripped
3 | (1/1) Accurately ripped
4 | (1/1) Accurately ripped
5 | (1/1) Accurately ripped
6 | (1/1) Accurately ripped
7 | (1/1) Accurately ripped
8 | (1/1) Accurately ripped
9 | (1/1) Accurately ripped
10 | (1/1) Accurately ripped
11 | (1/1) Accurately ripped

==== Log checksum AA57113DDBF209218E28ABB317103A3649E5B97403315386AA54F0419CE06045 ====
REM GENRE Fusion 
REM DATE 2021
REM DISCID B911750B
REM COMMENT "ExactAudioCopy v1.0b4"
PERFORMER "Ghost Rhythms"
TITLE "Spectral Music"
FILE "01. Paraglider.wav" WAVE
TRACK 01 AUDIO
TITLE "Paraglider"
PERFORMER "Ghost Rhythms"
INDEX 01 00:00:00
FILE "02. Thoughtography.wav" WAVE
TRACK 02 AUDIO
TITLE "Thoughtography"
PERFORMER "Ghost Rhythms"
INDEX 01 00:00:00
TRACK 03 AUDIO
TITLE "Odradek"
PERFORMER "Ghost Rhythms"
INDEX 00 06:12:60
FILE "03. Odradek.wav" WAVE
INDEX 01 00:00:00
TRACK 04 AUDIO
TITLE "Mount Marsal"
PERFORMER "Ghost Rhythms"
INDEX 00 06:41:17
FILE "04. Mount Marsal.wav" WAVE
INDEX 01 00:00:00
TRACK 05 AUDIO
TITLE "A Distance"
PERFORMER "Ghost Rhythms"
INDEX 00 09:53:28
FILE "05. A Distance.wav" WAVE
INDEX 01 00:00:00
TRACK 06 AUDIO
TITLE "Spectral Music, 1"
PERFORMER "Ghost Rhythms"
INDEX 00 01:36:46
FILE "06. Spectral Music, 1.wav" WAVE
INDEX 01 00:00:00
TRACK 07 AUDIO
TITLE "The Life of Wyatt Hopper"
PERFORMER "Ghost Rhythms"
INDEX 00 10:39:00
FILE "07. The Life of Wyatt Hopper.wav" WAVE
INDEX 01 00:00:00
FILE "08. Spectral Music, 2.wav" WAVE
TRACK 08 AUDIO
TITLE "Spectral Music, 2"
PERFORMER "Ghost Rhythms"
INDEX 01 00:00:00
TRACK 09 AUDIO
TITLE "The Other Side"
PERFORMER "Ghost Rhythms"
INDEX 00 07:55:50
FILE "09. The Other Side.wav" WAVE
INDEX 01 00:00:00
TRACK 10 AUDIO
TITLE "Uchimizu"
PERFORMER "Ghost Rhythms"
INDEX 00 09:26:14
FILE "10. Uchimizu.wav" WAVE
INDEX 01 00:00:00
TRACK 11 AUDIO
TITLE "Opaque Uproar"
PERFORMER "Ghost Rhythms"
INDEX 00 07:57:10
FILE "11. Opaque Uproar.wav" WAVE
INDEX 01 00:00:00

Этот торрент недоступен для скачивания без регистрации, однако доступен по публичной magnet-ссылке (источники с публичных трекеров). Перед использованием ссылки прочтите, пожалуйста Пользовательское соглашение, а также как можно дольше оставайтесь на раздаче! Для того, чтобы скачать сам торрент-файл (который видит больше источников), а также для того, чтобы поблагодарить релизера, вам необходимо зарегистрироваться. Если регистрироваться лень - вы можете также попробовать скачать релиз по нашим партнерским ссылкам ниже. Кроме того, зарегистрированным пользователям не показывается всплывающая реклама при скачивании.

[underver.se].t232108.torrent
Трекер: Зарегистрирован   [ 03.01.2022 17:24 ]  
Статус: проверено (by Бишеп at 03.01.2022 17:24)
Поблагодарили: пока никто не поблагодарил...
Тип торрента: публичный - доступные источники с открытых трекеров: 
Размер: 565 MB (занимает 0.13 DVDR, для записи нужно 1 болванка DVDR/RW)
 
 

Яндекс.Метрика powered by Sphinx


В Н И М А Н И Е
Сайт не распространяет и не хранит электронные версии произведений, а лишь бесплатно и без коммерческой выгоды (не требуя взамен платы,
SMS и т.д.) предоставляет доступ к создаваемому пользователями каталогу ссылок на торрент-файлы, которые содержат только списки хеш-сумм.
Убедительная просьба с жалобами обращаться напрямую к пользователю, разместившему торрент файл.

Вверх