Loading...
Error

(Jazz) Wes Montgomery - Wes's Best (2019) [FLAC (Tracks+.Cue), Lossless]

Статистика раздачи
Размер:  310 MB   |    Зарегистрирован:  8 месяцев   |    Скачан:  3 раза

Полного источника не было: 3 месяца 26 дней

Сидов:  0  |  0 KB/s  ]   Личеров:  0  |  0 KB/s  ]

* - сиды/пиры с внешних источников

   
 
Автор Сообщение

Бишеп Пол:Муж

08-Янв-2022 16:33

Wes Montgomery - Wes's Best

Жанр: Jazz
Год выпуска: 2019
Носитель: CD
Производитель диска: Resonance Records - HCD-2039
Аудиокодек: FLAC
Тип рипа: Tracks+.CUE
Битрейт аудио: lossless
Продолжительность: 01:07:15


Треклист:
01. Jingles (04:35)
02. Mr. Walker (03:47)
03. West Coast Blues (04:05)
04. Four on Six (04:48)
05. Once I Loved (O Amor em Paz) (06:18)
06. Wes' Tune (06:09)
07. Li'l Darling (08:11)
08. Going Down to Big Mary's (03:28)
09. Diablo's Dance (04:20)
10. Nica's Dream (05:08)
11. Give Me the Simple Life (09:15)
12. 'Round Midnight (07:13)

Exact Audio Copy V1.3 from 2. September 2016 

EAC extraction logfile from 22. December 2021, 8:25

Wes Montgomery / WES'S BEST

Used drive : HL-DT-STBDDVDRW UH12LS28 Adapter: 1 ID: 0

Read mode : Secure
Utilize accurate stream : Yes
Defeat audio cache : Yes
Make use of C2 pointers : No

Read offset correction : 667
Overread into Lead-In and Lead-Out : No
Fill up missing offset samples with silence : Yes
Delete leading and trailing silent blocks : No
Null samples used in CRC calculations : Yes
Used interface : Native Win32 interface for Win NT & 2000
Gap handling : Appended to previous track

Used output format : User Defined Encoder
Selected bitrate : 1024 kBit/s
Quality : High
Add ID3 tag : No
Command line compressor : K:\Program Files (x86)\Exact Audio Copy\Flac\flac.exe
Additional command line options : -8 -V -T "ARTIST=%artist%" -T "TITLE=%title%" -T "ALBUM=%albumtitle%" -T "DATE=%year%" -T "TRACKNUMBER=%tracknr%" -T "GENRE=%genre%" -T "PERFORMER=%albuminterpret%" -T "COMPOSER=%composer%" %haslyrics%--tag-from-file=LYRICS="%lyricsfile%"%haslyrics% -T "ALBUMARTIST=%albumartist%" -T "DISCNUMBER=%cdnumber%" -T "TOTALDISCS=%totalcds%" -T "TOTALTRACKS=%numtracks%" -T "COMMENT=%comment%" %source% -o %dest%

TOC of the extracted CD

Track | Start | Length | Start sector | End sector
---------------------------------------------------------
1 | 0:00.00 | 4:34.71 | 0 | 20620
2 | 4:34.71 | 3:47.13 | 20621 | 37658
3 | 8:22.09 | 4:04.48 | 37659 | 56006
4 | 12:26.57 | 4:47.43 | 56007 | 77574
5 | 17:14.25 | 6:17.44 | 77575 | 105893
6 | 23:31.69 | 6:08.69 | 105894 | 133562
7 | 29:40.63 | 8:11.00 | 133563 | 170387
8 | 37:51.63 | 3:27.52 | 170388 | 185964
9 | 41:19.40 | 4:19.51 | 185965 | 205440
10 | 45:39.16 | 5:08.00 | 205441 | 228540
11 | 50:47.16 | 9:14.48 | 228541 | 270138
12 | 60:01.64 | 7:13.25 | 270139 | 302638

Track 1

Filename E:\EAC music folders\Wes Montgomery - Wes's Best (2019) [FLAC] {RESONANCE HCD-239}\01 Jingles.wav

Pre-gap length 0:00:02.00

Peak level 92.8 %
Extraction speed 1.2 X
Track quality 100.0 %
Test CRC F2833665
Copy CRC F2833665
Accurately ripped (confidence 9) [39E7C774] (AR v2)
Copy OK

Track 2

Filename E:\EAC music folders\Wes Montgomery - Wes's Best (2019) [FLAC] {RESONANCE HCD-239}\02 Mr. Walker.wav

Pre-gap length 0:00:01.76

Peak level 90.2 %
Extraction speed 1.3 X
Track quality 100.0 %
Test CRC 431AFF1B
Copy CRC 431AFF1B
Accurately ripped (confidence 9) [354B9553] (AR v2)
Copy OK

Track 3

Filename E:\EAC music folders\Wes Montgomery - Wes's Best (2019) [FLAC] {RESONANCE HCD-239}\03 West Coast Blues.wav

Pre-gap length 0:00:01.76

Peak level 89.7 %
Extraction speed 1.4 X
Track quality 100.0 %
Test CRC 31A6C1D4
Copy CRC 31A6C1D4
Accurately ripped (confidence 9) [2FF6043D] (AR v2)
Copy OK

Track 4

Filename E:\EAC music folders\Wes Montgomery - Wes's Best (2019) [FLAC] {RESONANCE HCD-239}\04 Four on Six.wav

Pre-gap length 0:00:01.76

Peak level 91.2 %
Extraction speed 1.5 X
Track quality 100.0 %
Test CRC E0EDB370
Copy CRC E0EDB370
Accurately ripped (confidence 9) [807F62E2] (AR v2)
Copy OK

Track 5

Filename E:\EAC music folders\Wes Montgomery - Wes's Best (2019) [FLAC] {RESONANCE HCD-239}\05 Once I Loved (O Amor em Paz).wav

Pre-gap length 0:00:01.76

Peak level 90.7 %
Extraction speed 1.7 X
Track quality 100.0 %
Test CRC 1D01D749
Copy CRC 1D01D749
Accurately ripped (confidence 9) [7A1ADB69] (AR v2)
Copy OK

Track 6

Filename E:\EAC music folders\Wes Montgomery - Wes's Best (2019) [FLAC] {RESONANCE HCD-239}\06 Wes' Tune.wav

Pre-gap length 0:00:01.76

Peak level 90.4 %
Extraction speed 1.9 X
Track quality 100.0 %
Test CRC B9F5771E
Copy CRC B9F5771E
Accurately ripped (confidence 9) [B0F97FA5] (AR v2)
Copy OK

Track 7

Filename E:\EAC music folders\Wes Montgomery - Wes's Best (2019) [FLAC] {RESONANCE HCD-239}\07 Li'l Darling.wav

Pre-gap length 0:00:01.76

Peak level 89.7 %
Extraction speed 1.9 X
Track quality 99.9 %
Test CRC 91066736
Copy CRC 91066736
Accurately ripped (confidence 9) [0BB550C2] (AR v2)
Copy OK

Track 8

Filename E:\EAC music folders\Wes Montgomery - Wes's Best (2019) [FLAC] {RESONANCE HCD-239}\08 Going Down to Big Mary's.wav

Pre-gap length 0:00:01.76

Peak level 86.1 %
Extraction speed 2.0 X
Track quality 100.0 %
Test CRC 9A1CF71D
Copy CRC 9A1CF71D
Accurately ripped (confidence 9) [42A4C402] (AR v2)
Copy OK

Track 9

Filename E:\EAC music folders\Wes Montgomery - Wes's Best (2019) [FLAC] {RESONANCE HCD-239}\09 Diablo's Dance.wav

Pre-gap length 0:00:01.76

Peak level 88.1 %
Extraction speed 2.1 X
Track quality 100.0 %
Test CRC C4F92095
Copy CRC C4F92095
Accurately ripped (confidence 9) [E0E28566] (AR v2)
Copy OK

Track 10

Filename E:\EAC music folders\Wes Montgomery - Wes's Best (2019) [FLAC] {RESONANCE HCD-239}\10 Nica's Dream.wav

Pre-gap length 0:00:01.76

Peak level 87.9 %
Extraction speed 2.2 X
Track quality 100.0 %
Test CRC F939DDED
Copy CRC F939DDED
Accurately ripped (confidence 9) [0F33DEEC] (AR v2)
Copy OK

Track 11

Filename E:\EAC music folders\Wes Montgomery - Wes's Best (2019) [FLAC] {RESONANCE HCD-239}\11 Give Me the Simple Life.wav

Pre-gap length 0:00:01.76

Peak level 87.9 %
Extraction speed 2.5 X
Track quality 100.0 %
Test CRC 7719508D
Copy CRC 7719508D
Accurately ripped (confidence 9) [D1C4DB5D] (AR v2)
Copy OK

Track 12

Filename E:\EAC music folders\Wes Montgomery - Wes's Best (2019) [FLAC] {RESONANCE HCD-239}\12 'Round Midnight.wav

Pre-gap length 0:00:01.76

Peak level 87.9 %
Extraction speed 2.6 X
Track quality 100.0 %
Test CRC 0DFFDEA9
Copy CRC 0DFFDEA9
Accurately ripped (confidence 9) [68D564CD] (AR v2)
Copy OK

All tracks accurately ripped

No errors occurred

End of status report

---- CUETools DB Plugin V2.1.6

[CTDB TOCID: rq.nL_2cG0U1uUVS0vM3bjprP4s-] found
Submit result: rq.nL_2cG0U1uUVS0vM3bjprP4s- has been confirmed
Track | CTDB Status
1 | (9/9) Accurately ripped
2 | (9/9) Accurately ripped
3 | (9/9) Accurately ripped
4 | (9/9) Accurately ripped
5 | (9/9) Accurately ripped
6 | (9/9) Accurately ripped
7 | (9/9) Accurately ripped
8 | (9/9) Accurately ripped
9 | (9/9) Accurately ripped
10 | (9/9) Accurately ripped
11 | (9/9) Accurately ripped
12 | (9/9) Accurately ripped

==== Log checksum 320058D203D4DD06BBCA2DDE4CC5B1BF0A19EB2133C3456A7C5526E8E6263D4F ====
REM GENRE Jazz 
REM DATE 2019
REM DISCID 990FC30C
REM COMMENT "ExactAudioCopy v1.3"
PERFORMER "Wes Montgomery"
TITLE "Wes's Best"
FILE "01 - Jingles.wav" WAVE
TRACK 01 AUDIO
TITLE "Jingles"
PERFORMER "Wes Montgomery"
ISRC QMLD61402277
INDEX 01 00:00:00
TRACK 02 AUDIO
TITLE "Mr. Walker"
PERFORMER "Wes Montgomery"
ISRC USA2P1918220
INDEX 00 04:33:14
FILE "02 - Mr. Walker.wav" WAVE
INDEX 01 00:00:00
TRACK 03 AUDIO
TITLE "West Coast Blues"
PERFORMER "Wes Montgomery"
ISRC QMLD61402282
INDEX 00 03:45:31
FILE "03 - West Coast Blues.wav" WAVE
INDEX 01 00:00:00
TRACK 04 AUDIO
TITLE "Four on Six"
PERFORMER "Wes Montgomery"
ISRC USA2P1918219
INDEX 00 04:02:66
FILE "04 - Four on Six.wav" WAVE
INDEX 01 00:00:00
TRACK 05 AUDIO
TITLE "Once I Loved (O Amor em Paz)"
PERFORMER "Wes Montgomery"
ISRC QMLD61402283
INDEX 00 04:45:61
FILE "05 - Once I Loved (O Amor em Paz).wav" WAVE
INDEX 01 00:00:00
TRACK 06 AUDIO
TITLE "Wes' Tune"
PERFORMER "Wes Montgomery"
ISRC USA2P1494578
INDEX 00 06:15:62
FILE "06 - Wes' Tune.wav" WAVE
INDEX 01 00:00:00
TRACK 07 AUDIO
TITLE "Li'l Darling"
PERFORMER "Wes Montgomery"
ISRC USA2P1550014
INDEX 00 06:07:12
FILE "07 - Li'l Darling.wav" WAVE
INDEX 01 00:00:00
TRACK 08 AUDIO
TITLE "Going Down to Big Mary's"
PERFORMER "Wes Montgomery"
ISRC USA2P1494582
INDEX 00 08:09:18
FILE "08 - Going Down to Big Mary's.wav" WAVE
INDEX 01 00:00:00
TRACK 09 AUDIO
TITLE "Diablo's Dance"
PERFORMER "Wes Montgomery"
ISRC US89R1200898
INDEX 00 03:25:70
FILE "09 - Diablo's Dance.wav" WAVE
INDEX 01 00:00:00
TRACK 10 AUDIO
TITLE "Nica's Dream"
PERFORMER "Wes Montgomery"
ISRC US89R1200901
INDEX 00 04:17:69
FILE "10 - Nica's Dream.wav" WAVE
INDEX 01 00:00:00
TRACK 11 AUDIO
TITLE "Give Me the Simple Life"
PERFORMER "Wes Montgomery"
ISRC USA2P1550011
INDEX 00 05:06:18
FILE "11 - Give Me the Simple Life.wav" WAVE
INDEX 01 00:00:00
TRACK 12 AUDIO
TITLE "'Round Midnight"
PERFORMER "Wes Montgomery"
ISRC USA2P1918221
INDEX 00 09:12:66
FILE "12 - 'Round Midnight.wav" WAVE
INDEX 01 00:00:00

Этот торрент недоступен для скачивания без регистрации, однако доступен по публичной magnet-ссылке (источники с публичных трекеров). Перед использованием ссылки прочтите, пожалуйста Пользовательское соглашение, а также как можно дольше оставайтесь на раздаче! Для того, чтобы скачать сам торрент-файл (который видит больше источников), а также для того, чтобы поблагодарить релизера, вам необходимо зарегистрироваться. Если регистрироваться лень - вы можете также попробовать скачать релиз по нашим партнерским ссылкам ниже. Кроме того, зарегистрированным пользователям не показывается всплывающая реклама при скачивании.

[underver.se].t232564.torrent
Трекер: Зарегистрирован   [ 08.01.2022 16:33 ]  
Статус: проверено (by Бишеп at 08.01.2022 16:34)
Поблагодарили: пока никто не поблагодарил...
Тип торрента: публичный - доступные источники с открытых трекеров: 
Размер: 310 MB (занимает 0.07 DVDR, для записи нужно 1 болванка DVDR/RW)
 
 

Яндекс.Метрика powered by Sphinx


В Н И М А Н И Е
Сайт не распространяет и не хранит электронные версии произведений, а лишь бесплатно и без коммерческой выгоды (не требуя взамен платы,
SMS и т.д.) предоставляет доступ к создаваемому пользователями каталогу ссылок на торрент-файлы, которые содержат только списки хеш-сумм.
Убедительная просьба с жалобами обращаться напрямую к пользователю, разместившему торрент файл.

Вверх