Loading...
Error

(Jazz, Hard Bop) Kenny Dorham - The Arrival Of Kenny Dorham (1997) [FLAC (Tracks+.Cue), Lossless]

Статистика раздачи
Размер:  237 MB   |    Зарегистрирован:  8 месяцев   |    Скачан:  2 раза

Полного источника не было: 5 месяцев 17 дней

Сидов:  0  |  0 KB/s  ]   Личеров:  0  |  0 KB/s  ]

* - сиды/пиры с внешних источников

   
 
Автор Сообщение

Бишеп Пол:Муж

09-Янв-2022 13:24

Kenny Dorham - The Arrival Of Kenny Dorham

Жанр: Jazz, Hard Bop
Год выпуска: 1997
Носитель: CD
Производитель диска: Venus Records - TKCZ-36021, Jaro International - JAS-8007
Аудиокодек: FLAC
Тип рипа: Tracks+.CUE
Битрейт аудио: lossless
Продолжительность: 00:42:58


Треклист:
01. Stage West (08:30)
02. I'm an Old Cowhand (04:16)
03. Stella by Starlight (05:09)
04. Delilah (04:33)
05. Butch's Blues (03:48)
06. Lazy Afternoon (03:17)
07. Six Bits (04:52)
08. When Sunny Gets Blue (04:45)
09. Turbo (03:48)

X Lossless Decoder version 20181019 (151.1) 

XLD extraction logfile from 2021-12-15 22:39:54 -0500

Kenny Dorham / The Arrival of Kenny Dorham

Used drive : TSSTcorp CDDVDW SE-218CB (revision MF00)
Media type : Pressed CD

Ripper mode : XLD Secure Ripper
Disable audio cache : OK for the drive with a cache less than 1375KiB
Make use of C2 pointers : NO
Read offset correction : 6
Max retry count : 100
Gap status : Analyzed, Appended (except HTOA)

TOC of the extracted CD
Track | Start | Length | Start sector | End sector
---------------------------------------------------------
1 | 00:00:00 | 08:30:27 | 0 | 38276
2 | 08:30:27 | 04:16:18 | 38277 | 57494
3 | 12:46:45 | 05:09:20 | 57495 | 80689
4 | 17:55:65 | 04:32:60 | 80690 | 101149
5 | 22:28:50 | 03:47:70 | 101150 | 118244
6 | 26:16:45 | 03:16:50 | 118245 | 132994
7 | 29:33:20 | 04:51:55 | 132995 | 154874
8 | 34:25:00 | 04:44:55 | 154875 | 176229
9 | 39:09:55 | 03:48:32 | 176230 | 193361

AccurateRip Summary
Disc not found in AccurateRip DB.

All Tracks
Album gain : -6.66 dB
Peak : 0.999969
Statistics
Read error : 0
Jitter error (maybe fixed) : 0
Retry sector count : 0
Damaged sector count : 0

Track 01
Filename : /Volumes/Multimedia/XLD/Kenny Dorham - (1960) The Arrival of Kenny Dorham [FLAC]/01 - Stage West.flac
Pre-gap length : 00:02:00

Track gain : -6.03 dB
Peak : 0.998260
CRC32 hash (test run) : 1B03AB48
CRC32 hash : 1B03AB48
CRC32 hash (skip zero) : AE814127
AccurateRip v1 signature : BCB2FE3E
AccurateRip v2 signature : 19F1FB7F
->Track not present in AccurateRip database.
Statistics
Read error : 0
Jitter error (maybe fixed) : 0
Retry sector count : 0
Damaged sector count : 0

Track 02
Filename : /Volumes/Multimedia/XLD/Kenny Dorham - (1960) The Arrival of Kenny Dorham [FLAC]/02 - I'm an Old Cowhand.flac
Pre-gap length : 00:02:45

Track gain : -5.54 dB
Peak : 0.992249
CRC32 hash (test run) : 19C68BFB
CRC32 hash : 19C68BFB
CRC32 hash (skip zero) : CE0A7943
AccurateRip v1 signature : D97EA74E
AccurateRip v2 signature : 60CC2582
->Track not present in AccurateRip database.
Statistics
Read error : 0
Jitter error (maybe fixed) : 0
Retry sector count : 0
Damaged sector count : 0

Track 03
Filename : /Volumes/Multimedia/XLD/Kenny Dorham - (1960) The Arrival of Kenny Dorham [FLAC]/03 - Stella by Starlight.flac
Pre-gap length : 00:02:45

Track gain : -4.36 dB
Peak : 0.999939
CRC32 hash (test run) : 62192957
CRC32 hash : 62192957
CRC32 hash (skip zero) : 75287E6F
AccurateRip v1 signature : 780D80CE
AccurateRip v2 signature : 021F66CE
->Track not present in AccurateRip database.
Statistics
Read error : 0
Jitter error (maybe fixed) : 0
Retry sector count : 0
Damaged sector count : 0

Track 04
Filename : /Volumes/Multimedia/XLD/Kenny Dorham - (1960) The Arrival of Kenny Dorham [FLAC]/04 - Song of Delilah.flac
Pre-gap length : 00:02:45

Track gain : -4.40 dB
Peak : 0.993530
CRC32 hash (test run) : 75BA1BC6
CRC32 hash : 75BA1BC6
CRC32 hash (skip zero) : 987A0602
AccurateRip v1 signature : 31B08CE3
AccurateRip v2 signature : B5EB7219
->Track not present in AccurateRip database.
Statistics
Read error : 0
Jitter error (maybe fixed) : 0
Retry sector count : 0
Damaged sector count : 0

Track 05
Filename : /Volumes/Multimedia/XLD/Kenny Dorham - (1960) The Arrival of Kenny Dorham [FLAC]/05 - Butch's Blues.flac
Pre-gap length : 00:02:45

Track gain : -4.34 dB
Peak : 0.993225
CRC32 hash (test run) : BFDFB916
CRC32 hash : BFDFB916
CRC32 hash (skip zero) : D0B4630B
AccurateRip v1 signature : 8E9B04E0
AccurateRip v2 signature : 21C37B1F
->Track not present in AccurateRip database.
Statistics
Read error : 0
Jitter error (maybe fixed) : 0
Retry sector count : 0
Damaged sector count : 0

Track 06
Filename : /Volumes/Multimedia/XLD/Kenny Dorham - (1960) The Arrival of Kenny Dorham [FLAC]/06 - Lazy Afternoon.flac
Pre-gap length : 00:02:45

Track gain : -5.88 dB
Peak : 0.999969
CRC32 hash (test run) : 035E92EF
CRC32 hash : 035E92EF
CRC32 hash (skip zero) : F43532FC
AccurateRip v1 signature : 5B684DEE
AccurateRip v2 signature : FC9BFA82
->Track not present in AccurateRip database.
Statistics
Read error : 0
Jitter error (maybe fixed) : 0
Retry sector count : 0
Damaged sector count : 0

Track 07
Filename : /Volumes/Multimedia/XLD/Kenny Dorham - (1960) The Arrival of Kenny Dorham [FLAC]/07 - Six Bits.flac
Pre-gap length : 00:02:45

Track gain : -9.07 dB
Peak : 0.996307
CRC32 hash (test run) : DBE29740
CRC32 hash : DBE29740
CRC32 hash (skip zero) : 8D006B43
AccurateRip v1 signature : BC4C4DA0
AccurateRip v2 signature : 4DB75101
->Track not present in AccurateRip database.
Statistics
Read error : 0
Jitter error (maybe fixed) : 0
Retry sector count : 0
Damaged sector count : 0

Track 08
Filename : /Volumes/Multimedia/XLD/Kenny Dorham - (1960) The Arrival of Kenny Dorham [FLAC]/08 - When Sunny Gets Blue.flac
Pre-gap length : 00:02:45

Track gain : -7.14 dB
Peak : 0.993500
CRC32 hash (test run) : 1D8F09B8
CRC32 hash : 1D8F09B8
CRC32 hash (skip zero) : 01F261D1
AccurateRip v1 signature : FD2EFCF7
AccurateRip v2 signature : B26B20D3
->Track not present in AccurateRip database.
Statistics
Read error : 0
Jitter error (maybe fixed) : 0
Retry sector count : 0
Damaged sector count : 0

Track 09
Filename : /Volumes/Multimedia/XLD/Kenny Dorham - (1960) The Arrival of Kenny Dorham [FLAC]/09 - Turbo.flac
Pre-gap length : 00:02:45

Track gain : -9.48 dB
Peak : 0.994965
CRC32 hash (test run) : 8E849C9C
CRC32 hash : 8E849C9C
CRC32 hash (skip zero) : A7C245ED
AccurateRip v1 signature : F803E1EC
AccurateRip v2 signature : 88A16BAB
->Track not present in AccurateRip database.
Statistics
Read error : 0
Jitter error (maybe fixed) : 0
Retry sector count : 0
Damaged sector count : 0

No errors occurred

End of status report

-----BEGIN XLD SIGNATURE-----
gr7b_LFYyvW7NbEkdNHEoWXHqDFdIVBfzS8K.L8FshIkaacYLqKbCYw45BZ5ybeiATIpzOde4_KTKhQR6NN20aKkwCEMPuu9qn..KXO
-----END XLD SIGNATURE-----
TITLE "The Arrival of Kenny Dorham" 
PERFORMER "Kenny Dorham"
REM GENRE "Jazz"
REM DATE "1960"
REM DISCID 7A0A1209
REM REPLAYGAIN_ALBUM_GAIN -6.66 dB
REM REPLAYGAIN_ALBUM_PEAK 0.999969
FILE "01 - Stage West.flac" WAVE
TRACK 01 AUDIO
TITLE "Stage West"
REM REPLAYGAIN_TRACK_GAIN -6.03 dB
REM REPLAYGAIN_TRACK_PEAK 0.998260
INDEX 01 00:00:00
TRACK 02 AUDIO
TITLE "I'm an Old Cowhand"
REM REPLAYGAIN_TRACK_GAIN -5.54 dB
REM REPLAYGAIN_TRACK_PEAK 0.992249
INDEX 00 08:27:57
FILE "02 - I'm an Old Cowhand.flac" WAVE
INDEX 01 00:00:00
TRACK 03 AUDIO
TITLE "Stella by Starlight"
REM REPLAYGAIN_TRACK_GAIN -4.36 dB
REM REPLAYGAIN_TRACK_PEAK 0.999939
INDEX 00 04:13:48
FILE "03 - Stella by Starlight.flac" WAVE
INDEX 01 00:00:00
TRACK 04 AUDIO
TITLE "Delilah"
REM REPLAYGAIN_TRACK_GAIN -4.40 dB
REM REPLAYGAIN_TRACK_PEAK 0.993530
INDEX 00 05:06:50
FILE "04 - Delilah.flac" WAVE
INDEX 01 00:00:00
TRACK 05 AUDIO
TITLE "Butch's Blues"
REM REPLAYGAIN_TRACK_GAIN -4.34 dB
REM REPLAYGAIN_TRACK_PEAK 0.993225
INDEX 00 04:30:15
FILE "05 - Butch's Blues.flac" WAVE
INDEX 01 00:00:00
TRACK 06 AUDIO
TITLE "Lazy Afternoon"
REM REPLAYGAIN_TRACK_GAIN -5.88 dB
REM REPLAYGAIN_TRACK_PEAK 0.999969
INDEX 00 03:45:25
FILE "06 - Lazy Afternoon.flac" WAVE
INDEX 01 00:00:00
TRACK 07 AUDIO
TITLE "Six Bits"
REM REPLAYGAIN_TRACK_GAIN -9.07 dB
REM REPLAYGAIN_TRACK_PEAK 0.996307
INDEX 00 03:14:05
FILE "07 - Six Bits.flac" WAVE
INDEX 01 00:00:00
TRACK 08 AUDIO
TITLE "When Sunny Gets Blue"
REM REPLAYGAIN_TRACK_GAIN -7.14 dB
REM REPLAYGAIN_TRACK_PEAK 0.993500
INDEX 00 04:49:10
FILE "08 - When Sunny Gets Blue.flac" WAVE
INDEX 01 00:00:00
TRACK 09 AUDIO
TITLE "Turbo"
REM REPLAYGAIN_TRACK_GAIN -9.48 dB
REM REPLAYGAIN_TRACK_PEAK 0.994965
INDEX 00 04:42:10
FILE "09 - Turbo.flac" WAVE
INDEX 01 00:00:00

Этот торрент недоступен для скачивания без регистрации, однако доступен по публичной magnet-ссылке (источники с публичных трекеров). Перед использованием ссылки прочтите, пожалуйста Пользовательское соглашение, а также как можно дольше оставайтесь на раздаче! Для того, чтобы скачать сам торрент-файл (который видит больше источников), а также для того, чтобы поблагодарить релизера, вам необходимо зарегистрироваться. Если регистрироваться лень - вы можете также попробовать скачать релиз по нашим партнерским ссылкам ниже. Кроме того, зарегистрированным пользователям не показывается всплывающая реклама при скачивании.

[underver.se].t232672.torrent
Трекер: Зарегистрирован   [ 09.01.2022 13:24 ]  
Статус: проверено (by Бишеп at 09.01.2022 13:24)
Поблагодарили: пока никто не поблагодарил...
Тип торрента: публичный - доступные источники с открытых трекеров: 
Размер: 237 MB (занимает 0.05 DVDR, для записи нужно 1 болванка DVDR/RW)
 
 

Яндекс.Метрика powered by Sphinx


В Н И М А Н И Е
Сайт не распространяет и не хранит электронные версии произведений, а лишь бесплатно и без коммерческой выгоды (не требуя взамен платы,
SMS и т.д.) предоставляет доступ к создаваемому пользователями каталогу ссылок на торрент-файлы, которые содержат только списки хеш-сумм.
Убедительная просьба с жалобами обращаться напрямую к пользователю, разместившему торрент файл.

Вверх