Loading...
Error

(Jazz, Big Band) Rob Parton's Jazztech Big Band - The Count Is In! (1993) [FLAC (Tracks+.Cue), Lossless]

Статистика раздачи
Размер:  396 MB   |    Зарегистрирован:  8 месяцев   |    Скачан:  3 раза

Полного источника не было: 5 месяцев 25 дней

Сидов:  0  |  0 KB/s  ]   Личеров:  0  |  0 KB/s  ]

* - сиды/пиры с внешних источников

   
 
Автор Сообщение

Бишеп Пол:Муж

09-Янв-2022 13:34

Rob Parton's Jazztech Big Band - The Count Is In!

Жанр: Jazz, Big Band
Год выпуска: 1993
Носитель: CD
Производитель диска: Sea Breeze Jazz - CDSB-2047
Аудиокодек: FLAC
Тип рипа: Tracks+.CUE
Битрейт аудио: lossless
Продолжительность: 01:05:37


Треклист:
01. Seems Like Old Times (04:05)
02. The Count Is In! (06:31)
03. Over the Rainbow (05:23)
04. Dear Old Stockholm (08:28)
05. Blue Skies (03:08)
06. To Love and Be Loved (05:59)
07. Doxy (05:01)
08. When I Fall in Love (05:16)
09. I Like Bebop (06:54)
10. Prelude to a Kiss (05:28)
11. Summertime (05:16)
12. Giant Steps (04:09)

Exact Audio Copy V1.5 from 20. February 2020 

EAC extraction logfile from 9. August 2020, 21:06

Rob Parton / The Count Is In!

Used drive : ASUS BC-12B1ST b Adapter: 1 ID: 0

Read mode : Secure
Utilize accurate stream : Yes
Defeat audio cache : Yes
Make use of C2 pointers : No

Read offset correction : 6
Overread into Lead-In and Lead-Out : No
Fill up missing offset samples with silence : Yes
Delete leading and trailing silent blocks : No
Null samples used in CRC calculations : Yes
Used interface : Native Win32 interface for Win NT & 2000
Gap handling : Appended to previous track

Used output format : User Defined Encoder
Selected bitrate : 768 kBit/s
Quality : High
Add ID3 tag : No
Command line compressor : C:\Program Files (x86)\Exact Audio Copy\FLAC\FLAC.EXE
Additional command line options : -8 -V -T "ARTIST=%artist%" -T "TITLE=%title%" -T "ALBUM=%albumtitle%" -T "DATE=%year%" -T "TRACKNUMBER=%tracknr%" -T "GENRE=%genre%" -T "PERFORMER=%albuminterpret%" -T "COMPOSER=%composer%" -T "ALBUMARTIST=%albumartist%" -T "DISCNUMBER=%cdnumber%" -T "TOTALDISCS=%totalcds%" -T "TOTALTRACKS=%numtracks%" -T "COMMENT=%comment%" %source% -o %dest%

TOC of the extracted CD

Track | Start | Length | Start sector | End sector
---------------------------------------------------------
1 | 0:00.00 | 4:05.15 | 0 | 18389
2 | 4:05.15 | 6:30.42 | 18390 | 47681
3 | 10:35.57 | 5:22.68 | 47682 | 71899
4 | 15:58.50 | 8:27.45 | 71900 | 109969
5 | 24:26.20 | 3:07.72 | 109970 | 124066
6 | 27:34.17 | 5:59.18 | 124067 | 151009
7 | 33:33.35 | 5:01.07 | 151010 | 173591
8 | 38:34.42 | 5:15.48 | 173592 | 197264
9 | 43:50.15 | 6:54.20 | 197265 | 228334
10 | 50:44.35 | 5:28.32 | 228335 | 252966
11 | 56:12.67 | 5:15.38 | 252967 | 276629
12 | 61:28.30 | 4:08.60 | 276630 | 295289

Track 1

Filename C:\EAC\Jazztech Big Band - The Count Is In! (1992)[FLAC]\01 - Seems Like Old Times.wav

Pre-gap length 0:00:02.00

Peak level 87.9 %
Extraction speed 2.1 X
Track quality 100.0 %
Test CRC DEACEE5C
Copy CRC DEACEE5C
Accurately ripped (confidence 4) [0149824B] (AR v2)
Copy OK

Track 2

Filename C:\EAC\Jazztech Big Band - The Count Is In! (1992)[FLAC]\02 - The Count Is In!.wav

Pre-gap length 0:00:01.64

Peak level 94.0 %
Extraction speed 2.5 X
Track quality 100.0 %
Test CRC ECB2660A
Copy CRC ECB2660A
Accurately ripped (confidence 4) [E6894EF3] (AR v2)
Copy OK

Track 3

Filename C:\EAC\Jazztech Big Band - The Count Is In! (1992)[FLAC]\03 - Over the Rainbow.wav

Pre-gap length 0:00:01.09

Peak level 81.8 %
Extraction speed 2.8 X
Track quality 100.0 %
Test CRC 0CD08AAE
Copy CRC 0CD08AAE
Accurately ripped (confidence 4) [0E99CE2E] (AR v2)
Copy OK

Track 4

Filename C:\EAC\Jazztech Big Band - The Count Is In! (1992)[FLAC]\04 - Dear Old Stockholm.wav

Pre-gap length 0:00:03.04

Peak level 94.1 %
Extraction speed 2.7 X
Track quality 99.9 %
Test CRC DDCB9111
Copy CRC DDCB9111
Accurately ripped (confidence 4) [0F9BF62B] (AR v2)
Copy OK

Track 5

Filename C:\EAC\Jazztech Big Band - The Count Is In! (1992)[FLAC]\05 - Blue Skies.wav

Pre-gap length 0:00:01.33

Peak level 89.7 %
Extraction speed 3.1 X
Track quality 100.0 %
Test CRC 58FCE8D0
Copy CRC 58FCE8D0
Accurately ripped (confidence 4) [2E6FD76A] (AR v2)
Copy OK

Track 6

Filename C:\EAC\Jazztech Big Band - The Count Is In! (1992)[FLAC]\06 - To Love and Be Loved.wav

Pre-gap length 0:00:01.26

Peak level 79.5 %
Extraction speed 3.5 X
Track quality 100.0 %
Test CRC A1FA7350
Copy CRC A1FA7350
Accurately ripped (confidence 4) [AF41BFE0] (AR v2)
Copy OK

Track 7

Filename C:\EAC\Jazztech Big Band - The Count Is In! (1992)[FLAC]\07 - Doxy.wav

Pre-gap length 0:00:01.80

Peak level 94.0 %
Extraction speed 2.8 X
Track quality 99.9 %
Test CRC 683C6581
Copy CRC 683C6581
Accurately ripped (confidence 4) [5D5FA315] (AR v2)
Copy OK

Track 8

Filename C:\EAC\Jazztech Big Band - The Count Is In! (1992)[FLAC]\08 - When I Fall in Love.wav

Pre-gap length 0:00:01.56

Peak level 94.0 %
Extraction speed 3.9 X
Track quality 100.0 %
Test CRC C0643BE3
Copy CRC C0643BE3
Accurately ripped (confidence 4) [A835B820] (AR v2)
Copy OK

Track 9

Filename C:\EAC\Jazztech Big Band - The Count Is In! (1992)[FLAC]\09 - I Like Bebop.wav

Pre-gap length 0:00:01.73

Peak level 94.1 %
Extraction speed 4.1 X
Track quality 100.0 %
Test CRC FA083326
Copy CRC FA083326
Accurately ripped (confidence 4) [4B1A1B2D] (AR v2)
Copy OK

Track 10

Filename C:\EAC\Jazztech Big Band - The Count Is In! (1992)[FLAC]\10 - Prelude to a Kiss.wav

Peak level 94.0 %
Extraction speed 4.2 X
Track quality 100.0 %
Test CRC 77E33891
Copy CRC 77E33891
Accurately ripped (confidence 4) [69559A5E] (AR v2)
Copy OK

Track 11

Filename C:\EAC\Jazztech Big Band - The Count Is In! (1992)[FLAC]\11 - Summertime.wav

Pre-gap length 0:00:02.22

Peak level 93.3 %
Extraction speed 4.3 X
Track quality 100.0 %
Test CRC 8289BEE8
Copy CRC 8289BEE8
Accurately ripped (confidence 4) [271513E6] (AR v2)
Copy OK

Track 12

Filename C:\EAC\Jazztech Big Band - The Count Is In! (1992)[FLAC]\12 - Giant Steps.wav

Pre-gap length 0:00:00.64

Peak level 94.0 %
Extraction speed 4.4 X
Track quality 100.0 %
Test CRC D46AC342
Copy CRC D46AC342
Accurately ripped (confidence 4) [9AE4B9FF] (AR v2)
Copy OK

All tracks accurately ripped

No errors occurred

End of status report

---- CUETools DB Plugin V2.1.6

[CTDB TOCID: KUrt8IXpoiqNohX8nvFkM.IDHNg-] found
Submit result: KUrt8IXpoiqNohX8nvFkM.IDHNg- has been confirmed
Track | CTDB Status
1 | (1/1) Accurately ripped
2 | (1/1) Accurately ripped
3 | (1/1) Accurately ripped
4 | (1/1) Accurately ripped
5 | (1/1) Accurately ripped
6 | (1/1) Accurately ripped
7 | (1/1) Accurately ripped
8 | (1/1) Accurately ripped
9 | (1/1) Accurately ripped
10 | (1/1) Accurately ripped
11 | (1/1) Accurately ripped
12 | (1/1) Accurately ripped

==== Log checksum C2962AB1354A5A7C99A6FF73241777FFF9A565B67973673523F111DFA334558B ====
REM GENRE Jazz 
REM DATE 1992
REM DISCID A40F610C
REM COMMENT "ExactAudioCopy v1.5"
PERFORMER "Rob Parton's Jazztech Big Band"
TITLE "The Count Is In!"
FILE "01 - Seems Like Old Times.wav" WAVE
TRACK 01 AUDIO
TITLE "Seems Like Old Times"
PERFORMER "Rob Parton's Jazztech Big Band"
INDEX 01 00:00:00
TRACK 02 AUDIO
TITLE "The Count Is In!"
PERFORMER "Rob Parton's Jazztech Big Band"
INDEX 00 04:03:42
FILE "02 - The Count Is In!.wav" WAVE
INDEX 01 00:00:00
TRACK 03 AUDIO
TITLE "Over the Rainbow"
PERFORMER "Rob Parton's Jazztech Big Band"
INDEX 00 06:29:35
FILE "03 - Over the Rainbow.wav" WAVE
INDEX 01 00:00:00
TRACK 04 AUDIO
TITLE "Dear Old Stockholm"
PERFORMER "Rob Parton's Jazztech Big Band"
INDEX 00 05:19:65
FILE "04 - Dear Old Stockholm.wav" WAVE
INDEX 01 00:00:00
TRACK 05 AUDIO
TITLE "Blue Skies"
PERFORMER "Rob Parton's Jazztech Big Band"
INDEX 00 08:26:20
FILE "05 - Blue Skies.wav" WAVE
INDEX 01 00:00:00
TRACK 06 AUDIO
TITLE "To Love and Be Loved"
PERFORMER "Rob Parton's Jazztech Big Band"
INDEX 00 03:06:52
FILE "06 - To Love and Be Loved.wav" WAVE
INDEX 01 00:00:00
TRACK 07 AUDIO
TITLE "Doxy"
PERFORMER "Rob Parton's Jazztech Big Band"
INDEX 00 05:57:33
FILE "07 - Doxy.wav" WAVE
INDEX 01 00:00:00
TRACK 08 AUDIO
TITLE "When I Fall in Love"
PERFORMER "Rob Parton's Jazztech Big Band"
INDEX 00 04:59:40
FILE "08 - When I Fall in Love.wav" WAVE
INDEX 01 00:00:00
TRACK 09 AUDIO
TITLE "I Like Bebop"
PERFORMER "Rob Parton's Jazztech Big Band"
INDEX 00 05:13:68
FILE "09 - I Like Bebop.wav" WAVE
INDEX 01 00:00:00
FILE "10 - Prelude to a Kiss.wav" WAVE
TRACK 10 AUDIO
TITLE "Prelude to a Kiss"
PERFORMER "Rob Parton's Jazztech Big Band"
INDEX 01 00:00:00
TRACK 11 AUDIO
TITLE "Summertime"
PERFORMER "Rob Parton's Jazztech Big Band"
INDEX 00 05:26:15
FILE "11 - Summertime.wav" WAVE
INDEX 01 00:00:00
TRACK 12 AUDIO
TITLE "Giant Steps"
PERFORMER "Rob Parton's Jazztech Big Band"
INDEX 00 05:14:65
FILE "12 - Giant Steps.wav" WAVE
INDEX 01 00:00:00

Этот торрент недоступен для скачивания без регистрации, однако доступен по публичной magnet-ссылке (источники с публичных трекеров). Перед использованием ссылки прочтите, пожалуйста Пользовательское соглашение, а также как можно дольше оставайтесь на раздаче! Для того, чтобы скачать сам торрент-файл (который видит больше источников), а также для того, чтобы поблагодарить релизера, вам необходимо зарегистрироваться. Если регистрироваться лень - вы можете также попробовать скачать релиз по нашим партнерским ссылкам ниже. Кроме того, зарегистрированным пользователям не показывается всплывающая реклама при скачивании.

[underver.se].t232674.torrent
Трекер: Зарегистрирован   [ 09.01.2022 13:34 ]  
Статус: проверено (by Бишеп at 09.01.2022 13:34)
Поблагодарили: пока никто не поблагодарил...
Тип торрента: публичный - доступные источники с открытых трекеров: 
Размер: 396 MB (занимает 0.09 DVDR, для записи нужно 1 болванка DVDR/RW)
 
 

Яндекс.Метрика powered by Sphinx


В Н И М А Н И Е
Сайт не распространяет и не хранит электронные версии произведений, а лишь бесплатно и без коммерческой выгоды (не требуя взамен платы,
SMS и т.д.) предоставляет доступ к создаваемому пользователями каталогу ссылок на торрент-файлы, которые содержат только списки хеш-сумм.
Убедительная просьба с жалобами обращаться напрямую к пользователю, разместившему торрент файл.

Вверх