Loading...
Error

(Jazz, Contemporary Jazz) Aldo Romano' New Blood - Plays "The Connection" (2013) [FLAC (Tracks+.Cue), Lossless]

Статистика раздачи
Размер:  256 MB   |    Зарегистрирован:  8 месяцев   |    Скачан:  2 раза

Полного источника не было: 4 месяца 27 дней

Сидов:  0  |  0 KB/s  ]   Личеров:  0  |  0 KB/s  ]

* - сиды/пиры с внешних источников

   
 
Автор Сообщение

Бишеп Пол:Муж

10-Янв-2022 11:16

Aldo Romano' New Blood - Plays "The Connection"

Жанр: Jazz, Contemporary Jazz
Год выпуска: 2013
Носитель: CD
Производитель диска: Dreyfus Jazz - FDM 46050369842
Аудиокодек: FLAC
Тип рипа: Tracks+.CUE
Битрейт аудио: lossless
Продолжительность: 00:38:49


Треклист:
01. Who Killed Cock Robin (03:56)
02. Wigglin' (04:37)
03. Music Forever (03:58)
04. Time to Smile (04:13)
05. Theme for Sister Salvation (03:05)
06. Jim Dunn's Dilemma (03:01)
07. O.D. (Overdose) (03:04)
08. Murmur (05:42)
09. Conception (02:43)
10. Ballade for Jackie (04:31)

Exact Audio Copy V1.6 from 23. October 2020 

EAC extraction logfile from 29. November 2021, 10:09

Aldo Romano' New Blood / Plays 'The Connection'

Used drive : PLEXTOR PX-891SAF Adapter: 1 ID: 0

Read mode : Secure
Utilize accurate stream : Yes
Defeat audio cache : Yes
Make use of C2 pointers : No

Read offset correction : 6
Overread into Lead-In and Lead-Out : No
Fill up missing offset samples with silence : Yes
Delete leading and trailing silent blocks : No
Null samples used in CRC calculations : Yes
Used interface : Native Win32 interface for Win NT & 2000
Gap handling : Appended to previous track

Used output format : User Defined Encoder
Selected bitrate : 768 kBit/s
Quality : High
Add ID3 tag : No
Command line compressor : C:\Program Files (x86)\Exact Audio Copy\Flac\flac.exe
Additional command line options : -8 -V -T "ARTIST=%artist%" -T "TITLE=%title%" -T "ALBUM=%albumtitle%" -T "DATE=%year%" -T "TRACKNUMBER=%tracknr%" -T "TOTALTRACKS=%numtracks%" -T "GENRE=%genre%" -T "ALBUMARTIST=%albumartist%" -T "ALBUM ARTIST=%albumartist%" -T "COMMENT=EAC Secure Mode, Test & Copy, AccurateRip, FLAC -8" %source%

TOC of the extracted CD

Track | Start | Length | Start sector | End sector
---------------------------------------------------------
1 | 0:00.00 | 3:55.41 | 0 | 17665
2 | 3:55.41 | 4:36.62 | 17666 | 38427
3 | 8:32.28 | 3:58.18 | 38428 | 56295
4 | 12:30.46 | 4:13.30 | 56296 | 75300
5 | 16:44.01 | 3:04.48 | 75301 | 89148
6 | 19:48.49 | 3:00.60 | 89149 | 102708
7 | 22:49.34 | 3:04.02 | 102709 | 116510
8 | 25:53.36 | 5:41.71 | 116511 | 142156
9 | 31:35.32 | 2:42.41 | 142157 | 154347
10 | 34:17.73 | 4:31.14 | 154348 | 174686

Track 1

Filename E:\Aldo Romano' New Blood - Plays 'The Connection'\01 - Who Killed Cock Robin.wav

Pre-gap length 0:00:02.00

Peak level 100.0 %
Extraction speed 5.3 X
Track quality 100.0 %
Test CRC 2C6E5E0A
Copy CRC 2C6E5E0A
Accurately ripped (confidence 8) [01C9D6A0] (AR v2)
Copy OK

Track 2

Filename E:\Aldo Romano' New Blood - Plays 'The Connection'\02 - Wigglin'.wav

Pre-gap length 0:00:00.25

Peak level 100.0 %
Extraction speed 6.0 X
Track quality 100.0 %
Test CRC 0EA655B1
Copy CRC 0EA655B1
Accurately ripped (confidence 8) [FBDAA86B] (AR v2)
Copy OK

Track 3

Filename E:\Aldo Romano' New Blood - Plays 'The Connection'\03 - Music Forever.wav

Pre-gap length 0:00:00.64

Peak level 100.0 %
Extraction speed 6.4 X
Track quality 100.0 %
Test CRC A2B0BEC6
Copy CRC A2B0BEC6
Accurately ripped (confidence 8) [15072524] (AR v2)
Copy OK

Track 4

Filename E:\Aldo Romano' New Blood - Plays 'The Connection'\04 - Time to Smile.wav

Pre-gap length 0:00:00.55

Peak level 100.0 %
Extraction speed 6.9 X
Track quality 100.0 %
Test CRC A9FC90CA
Copy CRC A9FC90CA
Accurately ripped (confidence 8) [71A8F6E4] (AR v2)
Copy OK

Track 5

Filename E:\Aldo Romano' New Blood - Plays 'The Connection'\05 - Theme for Sister Salvation.wav

Pre-gap length 0:00:01.70

Peak level 100.0 %
Extraction speed 7.0 X
Track quality 100.0 %
Test CRC C554D559
Copy CRC C554D559
Accurately ripped (confidence 8) [8A6720E2] (AR v2)
Copy OK

Track 6

Filename E:\Aldo Romano' New Blood - Plays 'The Connection'\06 - Jim Dunn's Dilemma.wav

Pre-gap length 0:00:01.52

Peak level 100.0 %
Extraction speed 7.2 X
Track quality 100.0 %
Test CRC 68173062
Copy CRC 68173062
Accurately ripped (confidence 8) [0BCE197C] (AR v2)
Copy OK

Track 7

Filename E:\Aldo Romano' New Blood - Plays 'The Connection'\07 - O.D. (Overdose).wav

Pre-gap length 0:00:02.13

Peak level 100.0 %
Extraction speed 7.5 X
Track quality 100.0 %
Test CRC 544CEB56
Copy CRC 544CEB56
Accurately ripped (confidence 8) [02B68018] (AR v2)
Copy OK

Track 8

Filename E:\Aldo Romano' New Blood - Plays 'The Connection'\08 - Murmur.wav

Peak level 100.0 %
Extraction speed 7.4 X
Track quality 99.9 %
Test CRC CA0F7920
Copy CRC CA0F7920
Accurately ripped (confidence 8) [3FEE4612] (AR v2)
Copy OK

Track 9

Filename E:\Aldo Romano' New Blood - Plays 'The Connection'\09 - Conception.wav

Pre-gap length 0:00:00.40

Peak level 100.0 %
Extraction speed 8.0 X
Track quality 100.0 %
Test CRC F1D60208
Copy CRC F1D60208
Accurately ripped (confidence 8) [9FC4095E] (AR v2)
Copy OK

Track 10

Filename E:\Aldo Romano' New Blood - Plays 'The Connection'\10 - Ballade for Jackie.wav

Pre-gap length 0:00:01.19

Peak level 100.0 %
Extraction speed 9.0 X
Track quality 100.0 %
Test CRC 457C2618
Copy CRC 457C2618
Accurately ripped (confidence 8) [DB947C96] (AR v2)
Copy OK

All tracks accurately ripped

No errors occurred

End of status report

---- CUETools DB Plugin V2.1.6

[CTDB TOCID: 6RrGa4EgF9d87PhmEb4XZnnc8lI-] found
Submit result: 6RrGa4EgF9d87PhmEb4XZnnc8lI- has been confirmed
Track | CTDB Status
1 | (14/14) Accurately ripped
2 | (14/14) Accurately ripped
3 | (14/14) Accurately ripped
4 | (14/14) Accurately ripped
5 | (14/14) Accurately ripped
6 | (14/14) Accurately ripped
7 | (14/14) Accurately ripped
8 | (14/14) Accurately ripped
9 | (14/14) Accurately ripped
10 | (14/14) Accurately ripped

==== Log checksum C9A142F583E9022BF785585F6AA454672264E3AEB2A53A4EBDE03E7676E3605F ====
REM GENRE Jazz 
REM DATE 2013
REM DISCID 7D09190A
REM COMMENT "ExactAudioCopy v1.6"
PERFORMER "Aldo Romano' New Blood"
TITLE "Plays 'The Connection'"
FILE "01 - Who Killed Cock Robin.wav" WAVE
TRACK 01 AUDIO
TITLE "Who Killed Cock Robin"
PERFORMER "Aldo Romano' New Blood"
INDEX 01 00:00:00
TRACK 02 AUDIO
TITLE "Wigglin'"
PERFORMER "Aldo Romano' New Blood"
INDEX 00 03:55:16
FILE "02 - Wigglin'.wav" WAVE
INDEX 01 00:00:00
TRACK 03 AUDIO
TITLE "Music Forever"
PERFORMER "Aldo Romano' New Blood"
INDEX 00 04:35:73
FILE "03 - Music Forever.wav" WAVE
INDEX 01 00:00:00
TRACK 04 AUDIO
TITLE "Time to Smile"
PERFORMER "Aldo Romano' New Blood"
INDEX 00 03:57:38
FILE "04 - Time to Smile.wav" WAVE
INDEX 01 00:00:00
TRACK 05 AUDIO
TITLE "Theme for Sister Salvation"
PERFORMER "Aldo Romano' New Blood"
INDEX 00 04:11:35
FILE "05 - Theme for Sister Salvation.wav" WAVE
INDEX 01 00:00:00
TRACK 06 AUDIO
TITLE "Jim Dunn's Dilemma"
PERFORMER "Aldo Romano' New Blood"
INDEX 00 03:02:71
FILE "06 - Jim Dunn's Dilemma.wav" WAVE
INDEX 01 00:00:00
TRACK 07 AUDIO
TITLE "O.D. (Overdose)"
PERFORMER "Aldo Romano' New Blood"
INDEX 00 02:58:47
FILE "07 - O.D. (Overdose).wav" WAVE
INDEX 01 00:00:00
FILE "08 - Murmur.wav" WAVE
TRACK 08 AUDIO
TITLE "Murmur"
PERFORMER "Aldo Romano' New Blood"
INDEX 01 00:00:00
TRACK 09 AUDIO
TITLE "Conception"
PERFORMER "Aldo Romano' New Blood"
INDEX 00 05:41:31
FILE "09 - Conception.wav" WAVE
INDEX 01 00:00:00
TRACK 10 AUDIO
TITLE "Ballade for Jackie"
PERFORMER "Aldo Romano' New Blood"
INDEX 00 02:41:22
FILE "10 - Ballade for Jackie.wav" WAVE
INDEX 01 00:00:00

Этот торрент недоступен для скачивания без регистрации, однако доступен по публичной magnet-ссылке (источники с публичных трекеров). Перед использованием ссылки прочтите, пожалуйста Пользовательское соглашение, а также как можно дольше оставайтесь на раздаче! Для того, чтобы скачать сам торрент-файл (который видит больше источников), а также для того, чтобы поблагодарить релизера, вам необходимо зарегистрироваться. Если регистрироваться лень - вы можете также попробовать скачать релиз по нашим партнерским ссылкам ниже. Кроме того, зарегистрированным пользователям не показывается всплывающая реклама при скачивании.

[underver.se].t232709.torrent
Трекер: Зарегистрирован   [ 10.01.2022 11:16 ]  
Статус: проверено (by Бишеп at 10.01.2022 11:16)
Поблагодарили: пока никто не поблагодарил...
Тип торрента: публичный - доступные источники с открытых трекеров: 
Размер: 256 MB (занимает 0.06 DVDR, для записи нужно 1 болванка DVDR/RW)
 
 

Яндекс.Метрика powered by Sphinx


В Н И М А Н И Е
Сайт не распространяет и не хранит электронные версии произведений, а лишь бесплатно и без коммерческой выгоды (не требуя взамен платы,
SMS и т.д.) предоставляет доступ к создаваемому пользователями каталогу ссылок на торрент-файлы, которые содержат только списки хеш-сумм.
Убедительная просьба с жалобами обращаться напрямую к пользователю, разместившему торрент файл.

Вверх