Loading...
Error

(Jazz, Hard Bop, Post-Bop) John Coltrane - My Favorite Things (1987) [FLAC (Tracks+.Cue), Lossless]

Статистика раздачи
Размер:  246 MB   |    Зарегистрирован:  8 месяцев   |    Скачан:  3 раза

Полного источника не было: 10 дней

Сидов:  0  |  0 KB/s  ]   Личеров:  0  |  0 KB/s  ]

* - сиды/пиры с внешних источников

   
 
Автор Сообщение

Бишеп Пол:Муж

10-Янв-2022 11:33

John Coltrane - My Favorite Things

Жанр: Jazz, Hard Bop, Post-Bop
Год выпуска: 1987
Носитель: CD
Производитель диска: Atlantic - 1361-2
Аудиокодек: FLAC
Тип рипа: Tracks+.CUE
Битрейт аудио: lossless
Продолжительность: 00:40:37


Треклист:
01. My Favorite Things (13:44)
02. Everytime We Say Goodbye (05:43)
03. Summertime (11:36)
04. But Not for Me (09:34)

Exact Audio Copy V1.3 from 2. September 2016 

EAC extraction logfile from 15. December 2021, 10:15

John Coltrane / My Favorite Things

Used drive : ASUS DRW-24B1ST j Adapter: 1 ID: 0

Read mode : Secure
Utilize accurate stream : Yes
Defeat audio cache : Yes
Make use of C2 pointers : No

Read offset correction : 6
Overread into Lead-In and Lead-Out : No
Fill up missing offset samples with silence : Yes
Delete leading and trailing silent blocks : No
Null samples used in CRC calculations : Yes
Used interface : Native Win32 interface for Win NT & 2000
Gap handling : Appended to previous track

Used output format : User Defined Encoder
Selected bitrate : 1024 kBit/s
Quality : High
Add ID3 tag : No
Command line compressor : C:\Program Files (x86)\Exact Audio Copy\Flac\flac.exe
Additional command line options : -8 -V -T "ARTIST=%artist%" -T "TITLE=%title%" -T "ALBUM=%albumtitle%" -T "DATE=%year%" -T "TRACKNUMBER=%tracknr%" -T "GENRE=%genre%" -T "PERFORMER=%albuminterpret%" -T "COMPOSER=%composer%" %haslyrics%--tag-from-file=LYRICS="%lyricsfile%"%haslyrics% -T "ALBUMARTIST=%albumartist%" -T "DISCNUMBER=%cdnumber%" -T "TOTALDISCS=%totalcds%" -T "TOTALTRACKS=%numtracks%" -T "COMMENT=%comment%" %source% -o %dest%

TOC of the extracted CD

Track | Start | Length | Start sector | End sector
---------------------------------------------------------
1 | 0:00.32 | 13:44.00 | 32 | 61831
2 | 13:44.32 | 5:43.15 | 61832 | 87571
3 | 19:27.47 | 11:35.50 | 87572 | 139746
4 | 31:03.22 | 9:34.35 | 139747 | 182831

Track 1

Filename H:\EAC - Rips\John Coltrane - My Facorite Things (1961)[FLAC]\01 - My Favorite Things.wav

Pre-gap length 0:00:02.42

Peak level 83.1 %
Extraction speed 6.1 X
Track quality 99.9 %
Test CRC EC2AEE97
Copy CRC EC2AEE97
Accurately ripped (confidence 9) [4FFD5E2C] (AR v2)
Copy OK

Track 2

Filename H:\EAC - Rips\John Coltrane - My Facorite Things (1961)[FLAC]\02 - Everytime We Say Goodbye.wav

Pre-gap length 0:00:03.93

Peak level 63.1 %
Extraction speed 7.3 X
Track quality 100.0 %
Test CRC 7B6771DB
Copy CRC 7B6771DB
Accurately ripped (confidence 9) [FFA80267] (AR v2)
Copy OK

Track 3

Filename H:\EAC - Rips\John Coltrane - My Facorite Things (1961)[FLAC]\03 - Summertime.wav

Pre-gap length 0:00:03.86

Peak level 97.0 %
Extraction speed 8.6 X
Track quality 100.0 %
Test CRC 1C54F708
Copy CRC 1C54F708
Accurately ripped (confidence 9) [2171AC05] (AR v2)
Copy OK

Track 4

Filename H:\EAC - Rips\John Coltrane - My Facorite Things (1961)[FLAC]\04 - But Not for Me.wav

Pre-gap length 0:00:03.89

Peak level 87.8 %
Extraction speed 9.6 X
Track quality 100.0 %
Test CRC 124AA423
Copy CRC 124AA423
Accurately ripped (confidence 9) [AA267BC0] (AR v2)
Copy OK

All tracks accurately ripped

No errors occurred

End of status report

---- CUETools DB Plugin V2.1.6

[CTDB TOCID: JLFmmImwvM4sE7TI5n5hYrjzQ0s-] found
Submit result: JLFmmImwvM4sE7TI5n5hYrjzQ0s- has been confirmed, JLFmmImwvM4sE7TI5n5hYrjzQ0s- has been confirmed
Track | CTDB Status
1 | (527/536) Accurately ripped, or (1/536) differs in 105 samples @09:22:70,09:23:06,09:25:37,09:26:23,09:26:35,09:26:47,09:26:71,09:27:20,09:27:32,09:28:17,09:28:29-09:28:30,09:28:42,09:29:03,09:59:24,10:00:46,10:01:07,10:09:55-10:09:56,10:09:67,10:10:17,10:18:17,10:18:66-10:18:67,10:19:41,10:19:53,10:19:66,10:20:03,10:20:27,10:21:13-10:21:14,12:17:60, or (1/536) differs in 33 samples @00:15:22,00:22:67,00:24:16,00:31:42,00:33:71
2 | (532/536) Accurately ripped
3 | (524/536) Accurately ripped, or (1/536) differs in 31750 samples @04:48:31-04:48:58
4 | (523/536) Accurately ripped

==== Log checksum 82DC94157C4BA55D1CE2685899E85EB00BCC69F0D98347055DF68890076E3562 ====
REM GENRE Jazz 
REM DATE 1960
REM DISCID 37098504
REM COMMENT "ExactAudioCopy v1.3"
CATALOG 0075670136120
PERFORMER "John Coltrane"
TITLE "My Favorite Things"
FILE "01 - My Favorite Things.wav" WAVE
TRACK 01 AUDIO
TITLE "My Favorite Things"
PERFORMER "John Coltrane"
PREGAP 00:00:32
INDEX 01 00:00:00
TRACK 02 AUDIO
TITLE "Everytime We Say Goodbye"
PERFORMER "John Coltrane"
INDEX 00 13:40:05
FILE "02 - Everytime We Say Goodbye.wav" WAVE
INDEX 01 00:00:00
TRACK 03 AUDIO
TITLE "Summertime"
PERFORMER "John Coltrane"
INDEX 00 05:39:25
FILE "03 - Summertime.wav" WAVE
INDEX 01 00:00:00
TRACK 04 AUDIO
TITLE "But Not for Me"
PERFORMER "John Coltrane"
INDEX 00 11:31:58
FILE "04 - But Not for Me.wav" WAVE
INDEX 01 00:00:00

Этот торрент недоступен для скачивания без регистрации, однако доступен по публичной magnet-ссылке (источники с публичных трекеров). Перед использованием ссылки прочтите, пожалуйста Пользовательское соглашение, а также как можно дольше оставайтесь на раздаче! Для того, чтобы скачать сам торрент-файл (который видит больше источников), а также для того, чтобы поблагодарить релизера, вам необходимо зарегистрироваться. Если регистрироваться лень - вы можете также попробовать скачать релиз по нашим партнерским ссылкам ниже. Кроме того, зарегистрированным пользователям не показывается всплывающая реклама при скачивании.

[underver.se].t232712.torrent
Трекер: Зарегистрирован   [ 10.01.2022 11:33 ]  
Статус: проверено (by Бишеп at 10.01.2022 11:33)
Поблагодарили: пока никто не поблагодарил...
Тип торрента: публичный - доступные источники с открытых трекеров: 
Размер: 246 MB (занимает 0.05 DVDR, для записи нужно 1 болванка DVDR/RW)
 
 

Яндекс.Метрика powered by Sphinx


В Н И М А Н И Е
Сайт не распространяет и не хранит электронные версии произведений, а лишь бесплатно и без коммерческой выгоды (не требуя взамен платы,
SMS и т.д.) предоставляет доступ к создаваемому пользователями каталогу ссылок на торрент-файлы, которые содержат только списки хеш-сумм.
Убедительная просьба с жалобами обращаться напрямую к пользователю, разместившему торрент файл.

Вверх