Loading...
Error

(Jazz, Contemporary Jazz) Noah Haidu - Slowly: Song For Keith Jarrett (2021) [FLAC (Tracks+.Cue), Lossless]

Статистика раздачи
Размер:  411 MB   |    Зарегистрирован:  8 месяцев   |    Скачан:  4 раза

Полного источника не было: 2 месяца 16 дней

Сидов:  0  |  0 KB/s  ]   Личеров:  0  |  0 KB/s  ]

* - сиды/пиры с внешних источников

   
 
Автор Сообщение

Бишеп Пол:Муж

10-Янв-2022 13:04

Noah Haidu - Slowly: Song For Keith Jarrett

Жанр: Jazz, Contemporary Jazz
Год выпуска: 2021
Носитель: CD
Производитель диска: Sunnyside - SSC1596
Аудиокодек: FLAC
Тип рипа: Tracks+.CUE
Битрейт аудио: lossless
Продолжительность: 01:15:56


Треклист:
01. Air Dancing (10:38)
02. Duchess (09:14)
03. What a Difference a Day Makes (10:08)
04. Rainbow/Keith Jarrett (12:32)
05. Georgia (07:33)
06. Slowly (05:36)
07. Lorca (10:24)
08. But Beautiful (09:51)

Exact Audio Copy V1.6 from 23. October 2020 

EAC extraction logfile from 20. December 2021, 10:39

Noah Haidu / Slowly - Song For Keith Jarrett

Used drive : ATAPI iHBS112 2 Adapter: 1 ID: 1

Read mode : Secure
Utilize accurate stream : Yes
Defeat audio cache : Yes
Make use of C2 pointers : No

Read offset correction : 6
Overread into Lead-In and Lead-Out : No
Fill up missing offset samples with silence : Yes
Delete leading and trailing silent blocks : No
Null samples used in CRC calculations : Yes
Used interface : Native Win32 interface for Win NT & 2000
Gap handling : Appended to previous track

Used output format : User Defined Encoder
Selected bitrate : 768 kBit/s
Quality : High
Add ID3 tag : No
Command line compressor : C:\Program Files (x86)\Exact Audio Copy\Flac\flac.exe
Additional command line options : -8 -V -T "ARTIST=%artist%" -T "TITLE=%title%" -T "ALBUM=%albumtitle%" -T "DATE=%year%" -T "TRACKNUMBER=%tracknr%" -T "GENRE=%genre%" -T "PERFORMER=%albuminterpret%" -T "COMPOSER=%composer%" -T "ALBUMARTIST=%albumartist%" -T "DISCNUMBER=%cdnumber%" -T "TOTALDISCS=%totalcds%" -T "TOTALTRACKS=%numtracks%" -T "COMMENT=EAC Secure Mode, Test & Copy, AccurateRip, FLAC -8" %source% -o %dest%

TOC of the extracted CD

Track | Start | Length | Start sector | End sector
---------------------------------------------------------
1 | 0:00.00 | 10:37.45 | 0 | 47819
2 | 10:37.45 | 9:14.22 | 47820 | 89391
3 | 19:51.67 | 10:07.59 | 89392 | 134975
4 | 29:59.51 | 12:31.62 | 134976 | 191362
5 | 42:31.38 | 7:33.17 | 191363 | 225354
6 | 50:04.55 | 5:35.65 | 225355 | 250544
7 | 55:40.45 | 10:24.02 | 250545 | 297346
8 | 66:04.47 | 9:51.28 | 297347 | 341699

Track 1

Filename G:\DL\Noah Haidu - Slowly - Song For Keith Jarrett (2021) [FLAC]\01 - Air Dancing.wav

Pre-gap length 0:00:02.00

Peak level 94.4 %
Extraction speed 2.6 X
Track quality 100.0 %
Test CRC E336DE45
Copy CRC E336DE45
Accurately ripped (confidence 1) [C0931C2D] (AR v2)
Copy OK

Track 2

Filename G:\DL\Noah Haidu - Slowly - Song For Keith Jarrett (2021) [FLAC]\02 - Duchess.wav

Peak level 94.4 %
Extraction speed 3.0 X
Track quality 100.0 %
Test CRC C4B59954
Copy CRC C4B59954
Accurately ripped (confidence 1) [6D527636] (AR v2)
Copy OK

Track 3

Filename G:\DL\Noah Haidu - Slowly - Song For Keith Jarrett (2021) [FLAC]\03 - What a Difference a Day Makes.wav

Peak level 94.4 %
Extraction speed 3.4 X
Track quality 100.0 %
Test CRC FD6A8508
Copy CRC FD6A8508
Accurately ripped (confidence 1) [8C11E5BD] (AR v2)
Copy OK

Track 4

Filename G:\DL\Noah Haidu - Slowly - Song For Keith Jarrett (2021) [FLAC]\04 - Rainbow - Keith Jarrett.wav

Peak level 94.4 %
Extraction speed 3.9 X
Track quality 100.0 %
Test CRC 4B2DB658
Copy CRC 4B2DB658
Accurately ripped (confidence 1) [91C24416] (AR v2)
Copy OK

Track 5

Filename G:\DL\Noah Haidu - Slowly - Song For Keith Jarrett (2021) [FLAC]\05 - Georgia.wav

Peak level 94.4 %
Extraction speed 4.0 X
Track quality 100.0 %
Test CRC 8ECE42AB
Copy CRC 8ECE42AB
Accurately ripped (confidence 1) [06FA880B] (AR v2)
Copy OK

Track 6

Filename G:\DL\Noah Haidu - Slowly - Song For Keith Jarrett (2021) [FLAC]\06 - Slowly.wav

Peak level 94.4 %
Extraction speed 4.1 X
Track quality 100.0 %
Test CRC F1E5A940
Copy CRC F1E5A940
Accurately ripped (confidence 1) [C0F8BBF4] (AR v2)
Copy OK

Track 7

Filename G:\DL\Noah Haidu - Slowly - Song For Keith Jarrett (2021) [FLAC]\07 - Lorca.wav

Peak level 94.4 %
Extraction speed 4.6 X
Track quality 100.0 %
Test CRC D811E87D
Copy CRC D811E87D
Accurately ripped (confidence 1) [DBD942A2] (AR v2)
Copy OK

Track 8

Filename G:\DL\Noah Haidu - Slowly - Song For Keith Jarrett (2021) [FLAC]\08 - But Beautiful.wav

Peak level 68.6 %
Extraction speed 4.8 X
Track quality 100.0 %
Test CRC 11C09A18
Copy CRC 11C09A18
Accurately ripped (confidence 1) [D1E620C3] (AR v2)
Copy OK

All tracks accurately ripped

No errors occurred

End of status report

---- CUETools DB Plugin V2.1.6

[CTDB TOCID: vcShJ169swcSrwdXKfNSJptJezU-] found
Submit result: vcShJ169swcSrwdXKfNSJptJezU- has been confirmed
Track | CTDB Status
1 | (3/3) Accurately ripped
2 | (3/3) Accurately ripped
3 | (3/3) Accurately ripped
4 | (3/3) Accurately ripped
5 | (3/3) Accurately ripped
6 | (3/3) Accurately ripped
7 | (3/3) Accurately ripped
8 | (3/3) Accurately ripped

==== Log checksum 21A56A508E85E64D6231925F81081A53B4A57D35D0CC39B2AC4B92D8149D5EBF ====
REM GENRE Jazz 
REM DATE 2021
REM DISCID 6811CC08
REM COMMENT "ExactAudioCopy v1.6"
PERFORMER "Noah Haidu"
TITLE "Slowly: Song for Keith Jarrett"
FILE "01 - Air Dancing.wav" WAVE
TRACK 01 AUDIO
TITLE "Air Dancing"
PERFORMER "Noah Haidu"
INDEX 01 00:00:00
FILE "02 - Duchess.wav" WAVE
TRACK 02 AUDIO
TITLE "Duchess"
PERFORMER "Noah Haidu"
INDEX 01 00:00:00
FILE "03 - What a Difference a Day Makes.wav" WAVE
TRACK 03 AUDIO
TITLE "What a Difference a Day Makes"
PERFORMER "Noah Haidu"
INDEX 01 00:00:00
FILE "04 - Rainbow,Keith Jarrett.wav" WAVE
TRACK 04 AUDIO
TITLE "Rainbow/Keith Jarrett"
PERFORMER "Noah Haidu"
INDEX 01 00:00:00
FILE "05 - Georgia.wav" WAVE
TRACK 05 AUDIO
TITLE "Georgia"
PERFORMER "Noah Haidu"
INDEX 01 00:00:00
FILE "06 - Slowly.wav" WAVE
TRACK 06 AUDIO
TITLE "Slowly"
PERFORMER "Noah Haidu"
INDEX 01 00:00:00
FILE "07 - Lorca.wav" WAVE
TRACK 07 AUDIO
TITLE "Lorca"
PERFORMER "Noah Haidu"
INDEX 01 00:00:00
FILE "08 - But Beautiful.wav" WAVE
TRACK 08 AUDIO
TITLE "But Beautiful"
PERFORMER "Noah Haidu"
INDEX 01 00:00:00

Этот торрент недоступен для скачивания без регистрации, однако доступен по публичной magnet-ссылке (источники с публичных трекеров). Перед использованием ссылки прочтите, пожалуйста Пользовательское соглашение, а также как можно дольше оставайтесь на раздаче! Для того, чтобы скачать сам торрент-файл (который видит больше источников), а также для того, чтобы поблагодарить релизера, вам необходимо зарегистрироваться. Если регистрироваться лень - вы можете также попробовать скачать релиз по нашим партнерским ссылкам ниже. Кроме того, зарегистрированным пользователям не показывается всплывающая реклама при скачивании.

[underver.se].t232717.torrent
Трекер: Зарегистрирован   [ 10.01.2022 13:04 ]  
Статус: проверено (by Бишеп at 10.01.2022 13:05)
Поблагодарили: пока никто не поблагодарил...
Тип торрента: публичный - доступные источники с открытых трекеров: 
Размер: 411 MB (занимает 0.09 DVDR, для записи нужно 1 болванка DVDR/RW)
 
 

Яндекс.Метрика powered by Sphinx


В Н И М А Н И Е
Сайт не распространяет и не хранит электронные версии произведений, а лишь бесплатно и без коммерческой выгоды (не требуя взамен платы,
SMS и т.д.) предоставляет доступ к создаваемому пользователями каталогу ссылок на торрент-файлы, которые содержат только списки хеш-сумм.
Убедительная просьба с жалобами обращаться напрямую к пользователю, разместившему торрент файл.

Вверх