Loading...
Error

Флэш / The Flash / Сезон: 7 / Серии: 1-18 из 18 (Дермотт Даунс, Стефан Плещински, Дэвид МакУиртер) [2021, США, Фантастика, боевик, драма, приключения, WEB-DLRip] MVO (LostFilm) + Original

Статистика раздачи
Размер:  10.61 GB   |    Зарегистрирован:  8 месяцев   |    Скачан:  10 раз

Полного источника не было: 8 дней

Сидов:  0  |  0 KB/s  ]   Личеров:  0  |  0 KB/s  ]

* - сиды/пиры с внешних источников

   
 
Автор Сообщение

cheloweck.dojdya Пол:Муж

11-Янв-2022 19:04

Флэш | The Flash
«Discover what makes a hero»

Год выпуска: 2021
Страна: США
Жанр: Фантастика, боевик, драма, приключения
Продолжительность: ~ 00:42:00
Перевод: Профессиональный (многоголосый закадровый) - LostFilm
Режиссёр: Дермотт Даунс, Стефан Плещински, Дэвид МакУиртер

В ролях: Грант Гастин, Кэндис Паттон, Даниэль Панабэйкер, Карлос Валдес, Томас Кавана, Джесси Л. Мартин, Даниэль Николет, Кейнан Лонсдейл, Патрик Сабонгуй, ХартлиСойер
Описание: Когда Барри Аллен был маленьким, больше всего на свете ему хотелось быть супергероем — тем, кто превосходит лимиты человеческого организма и использует во благо данную ему силу. Когда Барри было одиннадцать лет, он на собственном опыте узнал, что люди с необычными способностями действительно существуют: его мать была убита одним из таких людей. Повзрослев и став судмедэкспертом, Барри не отбросил мыслей о сверхлюдях и продолжал искать доказательства их существования, что не лучшим образом сказывалось на его репутации и общении с коллегами. Впрочем, однажды его усилия были вознаграждены…

Качество: WEB-DLRip
Формат: AVI
Видео: XviD, 720x400 (16:9), 23.976 fps, ~ 1600 Kbps
Аудио 1: AC3, 48.0 KHz, 2 ch, 192 kbps [Rus]
Аудио 2: AC3, 48.0 KHz, 2 ch, 192 kbps [Eng]
Субтитры: Отсутствуют
Реклама: Отсутствует
01 - Нет Уэллса - нет проблемы / All's Wells That Ends Wells
02 - Скорость мысли / The Speed of Thought
03 - Мать / Mother
04 - Сильный Централ-сити / Central City Strong
05 - Бойся меня / Fear Me
06 - Серия в 90-х / The One with the Nineties
07 - Болезненный процесс / Growing Pains
08 - Народ против Убийцы Мороз / The People V. Killer Frost
09 - Вне времени / Timeless
10 - Дела семейные. Часть 1 / Family Matters, Part 1
11 - Дела семейные. Часть 2 / Family Matters, Part 2
12 - Прощальный вайб / Good-Bye Vibrations
13 - Маскарад / Masquerade
14 - Луч света / Rayo de Luz
15 - Враг у ворот / Enemy at the Gates
16 - Военнопленный / P.O.W.
17 - Харты атакуют. Часть 1 / Heart of the Matter (1)
18 - Харты атакуют. Часть 2 / Heart of the Matter (2)
 
Общее
Полное имя : E:\The.Flash.S07.WEB-DLRip.LF\The.Flash.S07E01.avi
Формат : AVI
Формат/Информация : Audio Video Interleave
Размер файла : 605 Мбайт
Продолжительность : 42 м. 18 с.
Общий поток : 1998 Кбит/сек
Программа кодирования : VirtualDubMod 1.5.10.3 (build 2550/release)
Библиотека кодирования : VirtualDubMod build 2550/release

Видео
Идентификатор : 0
Формат : MPEG-4 Visual
Профиль формата : Advanced [email protected]
Настройки формата : BVOP1
Параметр BVOP формата : 1
Параметр QPel формата : Нет
Параметр GMC формата : Без точки перехода
Параметр матрицы формата : Default (MPEG)
Идентификатор кодека : XVID
Идентификатор кодека/Подсказка : XviD
Продолжительность : 42 м. 18 с.
Битрейт : 1600 Кбит/сек
Ширина : 720 пикселей
Высота : 400 пикселей
Соотношение сторон : 16:9
Частота кадров : 23,976 (24000/1001) кадра/сек
Цветовое пространство : YUV
Субдискретизация насыщенности : 4:2:0
Битовая глубина : 8 бит
Тип развёртки : Прогрессивная
Метод сжатия : С потерями
Бит/(Пиксели*Кадры) : 0.232
Размер потока : 484 Мбайт (80%)
Библиотека кодирования : XviD 67

Аудио #1
Идентификатор : 1
Формат : AC-3
Формат/Информация : Audio Coding 3
Коммерческое название : Dolby Digital
Идентификатор кодека : 2000
Продолжительность : 42 м. 18 с.
Вид битрейта : Постоянный
Битрейт : 192 Кбит/сек
Каналы : 2 канала
ChannelLayout : L R
Частота : 48,0 КГц
Частота кадров : 31,250 кадров/сек (1536 SPF)
Метод сжатия : С потерями
Размер потока : 58,1 Мбайт (10%)
Выравнивание : Разделение по промежуткам
Продолжительность промежутка : 42 мс. (1,00 видеокадр)
Время предзагрузки промежутка : 500 мс.
ServiceKind/String : Complete Main

Аудио #2
Идентификатор : 2
Формат : AC-3
Формат/Информация : Audio Coding 3
Коммерческое название : Dolby Digital
Идентификатор кодека : 2000
Продолжительность : 42 м. 18 с.
Вид битрейта : Постоянный
Битрейт : 192 Кбит/сек
Каналы : 2 канала
ChannelLayout : L R
Частота : 48,0 КГц
Частота кадров : 31,250 кадров/сек (1536 SPF)
Метод сжатия : С потерями
Размер потока : 58,1 Мбайт (10%)
Выравнивание : Разделение по промежуткам
Продолжительность промежутка : 42 мс. (1,00 видеокадр)
Время предзагрузки промежутка : 500 мс.
ServiceKind/String : Complete Main


Этот торрент недоступен для скачивания без регистрации, однако доступен по публичной magnet-ссылке (источники с публичных трекеров). Перед использованием ссылки прочтите, пожалуйста Пользовательское соглашение, а также как можно дольше оставайтесь на раздаче! Для того, чтобы скачать сам торрент-файл (который видит больше источников), а также для того, чтобы поблагодарить релизера, вам необходимо зарегистрироваться. Если регистрироваться лень - вы можете также попробовать скачать релиз по нашим партнерским ссылкам ниже. Кроме того, зарегистрированным пользователям не показывается всплывающая реклама при скачивании.

[underver.se].t232800.torrent
Трекер: Зарегистрирован   [ 11.01.2022 19:04 ]  
Статус: проверено (by Robbertta at 11.01.2022 19:22)
Поблагодарили: пока никто не поблагодарил...
Тип торрента: публичный - доступные источники с открытых трекеров: 
Размер: 10.61 GB (занимает 2.42 DVDR, для записи нужно 3 болванки DVDR/RW)
 
 

Яндекс.Метрика powered by Sphinx


В Н И М А Н И Е
Сайт не распространяет и не хранит электронные версии произведений, а лишь бесплатно и без коммерческой выгоды (не требуя взамен платы,
SMS и т.д.) предоставляет доступ к создаваемому пользователями каталогу ссылок на торрент-файлы, которые содержат только списки хеш-сумм.
Убедительная просьба с жалобами обращаться напрямую к пользователю, разместившему торрент файл.

Вверх