Loading...
Error

Николай Носков. Юбилейный концерт 6:0 [2016, Pop, HDTV, 1080i]

Статистика раздачи
Размер:  8.67 GB   |    Зарегистрирован:  8 месяцев   |    Скачан:  0 раз

Полного источника не было: Никогда

Сидов:  0  |  0 KB/s  ]   Личеров:  0  |  0 KB/s  ]

* - сиды/пиры с внешних источников

   
 
Автор Сообщение

cheloweck.dojdya Пол:Муж

12-Янв-2022 19:37

Николай Носков. Юбилейный концерт 6:0


Жанр: Pop
Продолжительность: 01:32:58
Год выпуска: 2016

Описание: Концерт, приуроченный к 60-тилетию Николая Носкова. Специальные гости вечера - хор Сретенского монастыря и певец Ivan. В программе концерта более 20 композиций от лирики к року и снова к симфоническому звучанию. Зрителей ждут легендарные хиты - "Это здорово" и "На меньшее я не согласен".
01. Николай Носков - Грибной дождь
02. Николай Носков - Мёд
03. Николай Носков - Оно Того Стоит
04. Николай Носков - Снег
05. Эльвира Сабанова (скрипка) - Пробуждение
06. Николай Носков - Озера
07. Николай Носков - Зимняя ночь (свеча горела на столе) стихи Пастернак
08. Николай Носков (Акапелло) и хор Сретенского монастыря - Черный ворон
09. Николай Носков - Исповедь (Не осуждай меня, Господь)
10. Николай Носков - Романс
11. Николай Носков - Зачем
12. Николай Носков - Спасибо небесам, спасибо милая
13. Николай Носков и IVAN - А на меньшее я не согласен
14. Николай Носков - Я тебя прошу
15. Николай Носков - Паранойя
16. Николай Носков - Я тебя люблю
17. Николай Носков - Это здорово
Качество: HDTV
Разрешение видео/развертка: 1080i
Контейнер: TS
Видео кодек: H.264
Аудио кодек: MP2
Видео: H264; 1920x1080 (16:9); 25.000 fps, ~ 12.5 kbps
Аудио: MPEG Audio 2, 48000 kHz stereo 192 kbps
 
General
ID : 1 (0x1)
Complete name : E:\Николай Носков. Юбилейный концерт 6.0 НТВ-HD 2017.01.04_kuzmichm2196.ts
Format : MPEG-TS
File size : 8.67 GiB
Duration : 1 h 32 min
Overall bit rate mode : Variable
Overall bit rate : 13.3 Mb/s

Video
ID : 2104 (0x838)
Menu ID : 104 (0x68)
Format : AVC
Format/Info : Advanced Video Codec
Format profile : [email protected]
Format settings, CABAC : Yes
Format settings, ReFrames : 4 frames
Codec ID : 27
Duration : 1 h 32 min
Bit rate : 12.5 Mb/s
Width : 1 920 pixels
Height : 1 080 pixels
Display aspect ratio : 16:9
Frame rate : 25.000 FPS
Standard : Component
Color space : YUV
Chroma subsampling : 4:2:0
Bit depth : 8 bits
Scan type : Interlaced
Scan type, store method : Separated fields
Scan order : Top Field First
Bits/(Pixel*Frame) : 0.241
Stream size : 8.11 GiB (94%)
Color range : Limited
Color primaries : BT.709
Transfer characteristics : BT.709
Matrix coefficients : BT.709

Audio
ID : 3104 (0xC20)
Menu ID : 104 (0x68)
Format : MPEG Audio
Format version : Version 1
Format profile : Layer 2
Codec ID : 3
Duration : 1 h 32 min
Bit rate mode : Constant
Bit rate : 192 kb/s
Channel(s) : 2 channels
Sampling rate : 48.0 kHz
Compression mode : Lossy
Stream size : 128 MiB (1%)
Language : Russian



Этот торрент недоступен для скачивания без регистрации, однако доступен по публичной magnet-ссылке (источники с публичных трекеров). Перед использованием ссылки прочтите, пожалуйста Пользовательское соглашение, а также как можно дольше оставайтесь на раздаче! Для того, чтобы скачать сам торрент-файл (который видит больше источников), а также для того, чтобы поблагодарить релизера, вам необходимо зарегистрироваться. Если регистрироваться лень - вы можете также попробовать скачать релиз по нашим партнерским ссылкам ниже. Кроме того, зарегистрированным пользователям не показывается всплывающая реклама при скачивании.

[underver.se].t232874.torrent
Трекер: Зарегистрирован   [ 12.01.2022 19:37 ]  
Статус: * не проверено
Поблагодарили: пока никто не поблагодарил...
Тип торрента: публичный - доступные источники с открытых трекеров: 
Размер: 8.67 GB (занимает 1.98 DVDR, для записи нужно 2 болванки DVDR/RW)
 
 

Яндекс.Метрика powered by Sphinx


В Н И М А Н И Е
Сайт не распространяет и не хранит электронные версии произведений, а лишь бесплатно и без коммерческой выгоды (не требуя взамен платы,
SMS и т.д.) предоставляет доступ к создаваемому пользователями каталогу ссылок на торрент-файлы, которые содержат только списки хеш-сумм.
Убедительная просьба с жалобами обращаться напрямую к пользователю, разместившему торрент файл.

Вверх