Loading...
Error

(Hard Bop) J.R. Monterose - The Message (1997) [FLAC (Tracks+.Cue), Lossless]

Статистика раздачи
Размер:  218 MB   |    Зарегистрирован:  8 месяцев   |    Скачан:  1 раз

Полного источника не было: 8 месяцев

Сидов:  0  |  0 KB/s  ]   Личеров:  0  |  0 KB/s  ]

* - сиды/пиры с внешних источников

   
 
Автор Сообщение

Бишеп Пол:Муж

13-Янв-2022 08:13

J.R. Monterose - The Message

Жанр: Hard Bop
Год выпуска: 1997
Носитель: CD
Производитель диска: Venus Records - TKCZ-36020, Jaro International - JAS-8004
Аудиокодек: FLAC
Тип рипа: Tracks+.CUE
Битрейт аудио: lossless
Продолжительность: 00:37:52


Треклист:
01. Straight Ahead (05:32)
02. Violets for Your Furs (02:48)
03. Green Street Scene (06:20)
04. Chafic (05:15)
05. You Know That (05:45)
06. I Remember Clifford (05:39)
07. Short Bridge (06:35)

X Lossless Decoder version 20181019 (151.1) 

XLD extraction logfile from 2021-12-15 22:59:00 -0500

JR Monterose / The Message

Used drive : TSSTcorp CDDVDW SE-218CB (revision MF00)
Media type : Pressed CD

Ripper mode : XLD Secure Ripper
Disable audio cache : OK for the drive with a cache less than 1375KiB
Make use of C2 pointers : NO
Read offset correction : 6
Max retry count : 100
Gap status : Analyzed, Appended (except HTOA)

TOC of the extracted CD
Track | Start | Length | Start sector | End sector
---------------------------------------------------------
1 | 00:00:00 | 05:31:42 | 0 | 24866
2 | 05:31:42 | 02:47:60 | 24867 | 37451
3 | 08:19:27 | 06:19:48 | 37452 | 65924
4 | 14:39:00 | 05:14:45 | 65925 | 89519
5 | 19:53:45 | 05:44:57 | 89520 | 115376
6 | 25:38:27 | 05:39:13 | 115377 | 140814
7 | 31:17:40 | 06:34:40 | 140815 | 170404

AccurateRip Summary (DiscID: 0009d509-003bbb66-5508e007)
Track 01 : OK (v2, confidence 8/ 8)
Track 02 : OK (v2, confidence 8/ 8)
Track 03 : OK (v2, confidence 8/ 8)
Track 04 : OK (v2, confidence 8/ 8)
Track 05 : OK (v2, confidence 8/ 8)
Track 06 : OK (v2, confidence 8/ 8)
Track 07 : OK (v2, confidence 8/ 8)
->All tracks accurately ripped.

All Tracks
Album gain : -5.11 dB
Peak : 0.999329
Statistics
Read error : 0
Jitter error (maybe fixed) : 0
Retry sector count : 0
Damaged sector count : 0

Track 01
Filename : /Volumes/Multimedia/XLD/Compilations - (1960) The Message [FLAC]/01 - Straight Ahead.flac
Pre-gap length : 00:02:00

Track gain : -5.78 dB
Peak : 0.995697
CRC32 hash (test run) : 5774D066
CRC32 hash : 5774D066
CRC32 hash (skip zero) : 5DB99A85
AccurateRip v1 signature : 0E3A74DF
AccurateRip v2 signature : FDE88BFE
->Accurately ripped (v2, confidence 8/ 8)
Statistics
Read error : 0
Jitter error (maybe fixed) : 0
Retry sector count : 0
Damaged sector count : 0

Track 02
Filename : /Volumes/Multimedia/XLD/Compilations - (1960) The Message [FLAC]/02 - Violets for Your Furs.flac
Pre-gap length : 00:02:45

Track gain : -3.00 dB
Peak : 0.976929
CRC32 hash (test run) : CC9DAEE6
CRC32 hash : CC9DAEE6
CRC32 hash (skip zero) : 2000C9D3
AccurateRip v1 signature : 57622CB6
AccurateRip v2 signature : 12C1E4B4
->Accurately ripped (v2, confidence 8/ 8)
Statistics
Read error : 0
Jitter error (maybe fixed) : 0
Retry sector count : 0
Damaged sector count : 0

Track 03
Filename : /Volumes/Multimedia/XLD/Compilations - (1960) The Message [FLAC]/03 - Green Street Scene.flac
Pre-gap length : 00:02:45

Track gain : -4.10 dB
Peak : 0.995636
CRC32 hash (test run) : A9A05F18
CRC32 hash : A9A05F18
CRC32 hash (skip zero) : 2A30B646
AccurateRip v1 signature : 020FB976
AccurateRip v2 signature : 8CE068E2
->Accurately ripped (v2, confidence 8/ 8)
Statistics
Read error : 0
Jitter error (maybe fixed) : 0
Retry sector count : 0
Damaged sector count : 0

Track 04
Filename : /Volumes/Multimedia/XLD/Compilations - (1960) The Message [FLAC]/04 - Chafic.flac
Pre-gap length : 00:02:45

Track gain : -3.48 dB
Peak : 0.991638
CRC32 hash (test run) : E4B2F7AF
CRC32 hash : E4B2F7AF
CRC32 hash (skip zero) : DFF4AE48
AccurateRip v1 signature : 2BE2C7F3
AccurateRip v2 signature : 0C2A3859
->Accurately ripped (v2, confidence 8/ 8)
Statistics
Read error : 0
Jitter error (maybe fixed) : 0
Retry sector count : 0
Damaged sector count : 0

Track 05
Filename : /Volumes/Multimedia/XLD/Compilations - (1960) The Message [FLAC]/05 - You Know That.flac
Pre-gap length : 00:02:45

Track gain : -5.99 dB
Peak : 0.999329
CRC32 hash (test run) : 726C0A4E
CRC32 hash : 726C0A4E
CRC32 hash (skip zero) : 7A5342A2
AccurateRip v1 signature : 174CE7F4
AccurateRip v2 signature : 3D2D5D81
->Accurately ripped (v2, confidence 8/ 8)
Statistics
Read error : 0
Jitter error (maybe fixed) : 0
Retry sector count : 0
Damaged sector count : 0

Track 06
Filename : /Volumes/Multimedia/XLD/Compilations - (1960) The Message [FLAC]/06 - I Remember Clifford.flac
Pre-gap length : 00:02:45

Track gain : -4.67 dB
Peak : 0.994598
CRC32 hash (test run) : 6CBAB7F9
CRC32 hash : 6CBAB7F9
CRC32 hash (skip zero) : 75974272
AccurateRip v1 signature : F33F0745
AccurateRip v2 signature : E3AD4668
->Accurately ripped (v2, confidence 8/ 8)
Statistics
Read error : 0
Jitter error (maybe fixed) : 0
Retry sector count : 0
Damaged sector count : 0

Track 07
Filename : /Volumes/Multimedia/XLD/Compilations - (1960) The Message [FLAC]/07 - Short Bridge.flac
Pre-gap length : 00:02:45

Track gain : -6.38 dB
Peak : 0.993958
CRC32 hash (test run) : 9BA460EA
CRC32 hash : 9BA460EA
CRC32 hash (skip zero) : B2B92599
AccurateRip v1 signature : 0D7D9577
AccurateRip v2 signature : 6842FB2B
->Accurately ripped (v2, confidence 8/ 8)
Statistics
Read error : 0
Jitter error (maybe fixed) : 0
Retry sector count : 0
Damaged sector count : 0

No errors occurred

End of status report

-----BEGIN XLD SIGNATURE-----
a42_miHATJBl4nCkMi1uY9X9GGEngC.e9LvDqrlnOrvRLSJvMuC8gARuuppfwvt19qJOt8zzQCXMGZBfWcLZTbuYjgXT9yd5y3mI9r0
-----END XLD SIGNATURE-----
TITLE "The Message" 
PERFORMER "J.R. Monterose"
REM GENRE "Jazz"
REM DATE "1960"
REM DISCID 5508E007
REM REPLAYGAIN_ALBUM_GAIN -5.11 dB
REM REPLAYGAIN_ALBUM_PEAK 0.999329
REM COMPILATION TRUE
FILE "01 - Straight Ahead.flac" WAVE
TRACK 01 AUDIO
TITLE "Straight Ahead"
REM REPLAYGAIN_TRACK_GAIN -5.78 dB
REM REPLAYGAIN_TRACK_PEAK 0.995697
INDEX 01 00:00:00
TRACK 02 AUDIO
TITLE "Violets for Your Furs"
REM REPLAYGAIN_TRACK_GAIN -3.00 dB
REM REPLAYGAIN_TRACK_PEAK 0.976929
INDEX 00 05:28:72
FILE "02 - Violets for Your Furs.flac" WAVE
INDEX 01 00:00:00
TRACK 03 AUDIO
TITLE "Green Street Scene"
REM REPLAYGAIN_TRACK_GAIN -4.10 dB
REM REPLAYGAIN_TRACK_PEAK 0.995636
INDEX 00 02:45:15
FILE "03 - Green Street Scene.flac" WAVE
INDEX 01 00:00:00
TRACK 04 AUDIO
TITLE "Chafic"
REM REPLAYGAIN_TRACK_GAIN -3.48 dB
REM REPLAYGAIN_TRACK_PEAK 0.991638
INDEX 00 06:17:03
FILE "04 - Chafic.flac" WAVE
INDEX 01 00:00:00
TRACK 05 AUDIO
TITLE "You Know That"
REM REPLAYGAIN_TRACK_GAIN -5.99 dB
REM REPLAYGAIN_TRACK_PEAK 0.999329
INDEX 00 05:12:00
FILE "05 - You Know That.flac" WAVE
INDEX 01 00:00:00
TRACK 06 AUDIO
TITLE "I Remember Clifford"
REM REPLAYGAIN_TRACK_GAIN -4.67 dB
REM REPLAYGAIN_TRACK_PEAK 0.994598
INDEX 00 05:42:12
FILE "06 - I Remember Clifford.flac" WAVE
INDEX 01 00:00:00
TRACK 07 AUDIO
TITLE "Short Bridge"
REM REPLAYGAIN_TRACK_GAIN -6.38 dB
REM REPLAYGAIN_TRACK_PEAK 0.993958
INDEX 00 05:36:43
FILE "07 - Short Bridge.flac" WAVE
INDEX 01 00:00:00

Этот торрент недоступен для скачивания без регистрации, однако доступен по публичной magnet-ссылке (источники с публичных трекеров). Перед использованием ссылки прочтите, пожалуйста Пользовательское соглашение, а также как можно дольше оставайтесь на раздаче! Для того, чтобы скачать сам торрент-файл (который видит больше источников), а также для того, чтобы поблагодарить релизера, вам необходимо зарегистрироваться. Если регистрироваться лень - вы можете также попробовать скачать релиз по нашим партнерским ссылкам ниже. Кроме того, зарегистрированным пользователям не показывается всплывающая реклама при скачивании.

[underver.se].t232903.torrent
Трекер: Зарегистрирован   [ 13.01.2022 08:13 ]  
Статус: проверено (by Бишеп at 13.01.2022 08:13)
Поблагодарили: пока никто не поблагодарил...
Тип торрента: публичный - доступные источники с открытых трекеров: 
Размер: 218 MB (занимает 0.05 DVDR, для записи нужно 1 болванка DVDR/RW)
 
 

Яндекс.Метрика powered by Sphinx


В Н И М А Н И Е
Сайт не распространяет и не хранит электронные версии произведений, а лишь бесплатно и без коммерческой выгоды (не требуя взамен платы,
SMS и т.д.) предоставляет доступ к создаваемому пользователями каталогу ссылок на торрент-файлы, которые содержат только списки хеш-сумм.
Убедительная просьба с жалобами обращаться напрямую к пользователю, разместившему торрент файл.

Вверх