Loading...
Error

(Vocal Jazz) Anita O'Day - The Complete Recordings 1949-1950 (1997) [FLAC (Tracks+.Cue), Lossless]

Статистика раздачи
Размер:  245 MB   |    Зарегистрирован:  8 месяцев   |    Скачан:  2 раза

Полного источника не было: 5 месяцев 13 дней

Сидов:  0  |  0 KB/s  ]   Личеров:  0  |  0 KB/s  ]

* - сиды/пиры с внешних источников

   
 
Автор Сообщение

Бишеп Пол:Муж

16-Янв-2022 14:35

Anita O'Day - The Complete Recordings 1949-1950

Жанр: Vocal Jazz
Год выпуска: 1997
Носитель: CD
Производитель диска: Baldwin Street Music - BJH-302
Аудиокодек: FLAC
Тип рипа: Tracks+.CUE
Битрейт аудио: lossless
Продолжительность: 01:06:21


Треклист:
01. Them There Eyes (02:41)
02. Memories of You (03:01)
03. How Come? (02:44)
04. I Can't Believe That You're in Love with Me (02:52)
05. Ain't Misbehavin' (02:27)
06. Penthouse Serenade (03:09)
07. Lonesome Road (01:47)
08. I Can't Give You Anything But Love (02:44)
09. Rosetta (02:14)
10. Jamaica Mon (02:28)
11. Don't Kick It Around (03:26)
12. So Much of Nothing to Do (03:14)
13. Poor Simple Simon (02:36)
14. Blues for Bojangles (03:13)
15. Your Eyes Are Bigger Than Your Heart (02:44)
16. Tennessee Waltz (03:02)
17. Yea Boo (02:20)
18. Something I Dreamed Last Night (03:13)
19. If I Could Steal You from Somebody Else (02:31)
20. You Took Advantage of Me (02:20)
21. Once There Lived a Fool (03:00)
22. I Apologize (03:05)
23. Black Moonlight (02:45)
24. Lovesick Blues (02:45)

X Lossless Decoder version 20211018 (154.0) 

XLD extraction logfile from 2022-01-07 09:14:21 -0800

Anita O'Day / The Complete Recordings 1949-1950

Used drive : HL-DT-ST DVDRAM GP65NB60 (revision PF00)
Media type : Pressed CD

Ripper mode : XLD Secure Ripper
Disable audio cache : OK for the drive with a cache less than 1375KiB
Make use of C2 pointers : NO
Read offset correction : 6
Max retry count : 20
Gap status : Analyzed, Appended (except HTOA)

TOC of the extracted CD
Track | Start | Length | Start sector | End sector
---------------------------------------------------------
1 | 00:00:00 | 02:41:37 | 0 | 12111
2 | 02:41:37 | 03:00:42 | 12112 | 25653
3 | 05:42:04 | 02:44:13 | 25654 | 37966
4 | 08:26:17 | 02:51:69 | 37967 | 50860
5 | 11:18:11 | 02:26:65 | 50861 | 61875
6 | 13:45:01 | 03:08:63 | 61876 | 76038
7 | 16:53:64 | 01:47:32 | 76039 | 84095
8 | 18:41:21 | 02:44:01 | 84096 | 96396
9 | 21:25:22 | 02:14:18 | 96397 | 106464
10 | 23:39:40 | 02:27:52 | 106465 | 117541
11 | 26:07:17 | 03:26:34 | 117542 | 133025
12 | 29:33:51 | 03:13:44 | 133026 | 147544
13 | 32:47:20 | 02:35:73 | 147545 | 159242
14 | 35:23:18 | 03:13:30 | 159243 | 173747
15 | 38:36:48 | 02:44:07 | 173748 | 186054
16 | 41:20:55 | 03:02:02 | 186055 | 199706
17 | 44:22:57 | 02:19:42 | 199707 | 210173
18 | 46:42:24 | 03:12:41 | 210174 | 224614
19 | 49:54:65 | 02:30:52 | 224615 | 235916
20 | 52:25:42 | 02:20:24 | 235917 | 246440
21 | 54:45:66 | 02:59:52 | 246441 | 259917
22 | 57:45:43 | 03:04:59 | 259918 | 273776
23 | 60:50:27 | 02:45:17 | 273777 | 286168
24 | 63:35:44 | 02:45:35 | 286169 | 298578

AccurateRip Summary (DiscID: 00388473-03d57cd8-6a0f8d18)
Track 01 : OK (v2, confidence 2/2)
Track 02 : OK (v2, confidence 2/2)
Track 03 : OK (v2, confidence 2/2)
Track 04 : OK (v2, confidence 2/2)
Track 05 : OK (v2, confidence 2/2)
Track 06 : OK (v2, confidence 2/2)
Track 07 : OK (v2, confidence 2/2)
Track 08 : OK (v2, confidence 2/2)
Track 09 : OK (v2, confidence 2/2)
Track 10 : OK (v2, confidence 2/2)
Track 11 : OK (v2, confidence 2/2)
Track 12 : OK (v2, confidence 2/2)
Track 13 : OK (v2, confidence 2/2)
Track 14 : OK (v2, confidence 2/2)
Track 15 : OK (v2, confidence 2/2)
Track 16 : OK (v2, confidence 2/2)
Track 17 : OK (v2, confidence 2/2)
Track 18 : OK (v2, confidence 2/2)
Track 19 : OK (v2, confidence 2/2)
Track 20 : OK (v2, confidence 2/2)
Track 21 : OK (v2, confidence 2/2)
Track 22 : OK (v2, confidence 2/2)
Track 23 : OK (v2, confidence 2/2)
Track 24 : OK (v2, confidence 2/2)
->All tracks accurately ripped.

All Tracks
Album gain : -1.72 dB
Peak : 0.949554
Statistics
Read error : 0
Jitter error (maybe fixed) : 0
Retry sector count : 0
Damaged sector count : 0

Track 01
Filename : /Volumes/El Segundo/Rips/Anita O'Day - The Complete Recordings 1949-1950 (1997) [FLAC]/01 Them There Eyes.flac
Pre-gap length : 00:02:00

Track gain : -4.29 dB
Peak : 0.949341
CRC32 hash (test run) : 21C96355
CRC32 hash : 21C96355
CRC32 hash (skip zero) : C6953DFB
AccurateRip v1 signature : CA51B072
AccurateRip v2 signature : 0C32FC55
->Accurately ripped (v2, confidence 2/2)
Statistics
Read error : 0
Jitter error (maybe fixed) : 0
Retry sector count : 0
Damaged sector count : 0

Track 02
Filename : /Volumes/El Segundo/Rips/Anita O'Day - The Complete Recordings 1949-1950 (1997) [FLAC]/02 Memories of You.flac

Track gain : -3.21 dB
Peak : 0.949341
CRC32 hash (test run) : CC1132E7
CRC32 hash : CC1132E7
CRC32 hash (skip zero) : 5BAECA67
AccurateRip v1 signature : 9FECCCB5
AccurateRip v2 signature : B73C4553
->Accurately ripped (v2, confidence 2/2)
Statistics
Read error : 0
Jitter error (maybe fixed) : 0
Retry sector count : 0
Damaged sector count : 0

Track 03
Filename : /Volumes/El Segundo/Rips/Anita O'Day - The Complete Recordings 1949-1950 (1997) [FLAC]/03 How Come_.flac

Track gain : -3.16 dB
Peak : 0.949554
CRC32 hash (test run) : B3751149
CRC32 hash : B3751149
CRC32 hash (skip zero) : C2E02D19
AccurateRip v1 signature : 9024266E
AccurateRip v2 signature : C0AFDD5F
->Accurately ripped (v2, confidence 2/2)
Statistics
Read error : 0
Jitter error (maybe fixed) : 0
Retry sector count : 0
Damaged sector count : 0

Track 04
Filename : /Volumes/El Segundo/Rips/Anita O'Day - The Complete Recordings 1949-1950 (1997) [FLAC]/04 I Can't Believe That You're in Love with Me.flac

Track gain : -3.65 dB
Peak : 0.949371
CRC32 hash (test run) : AF704DFA
CRC32 hash : AF704DFA
CRC32 hash (skip zero) : 1C5C6A44
AccurateRip v1 signature : 47F6F1BD
AccurateRip v2 signature : 9A8E1AE4
->Accurately ripped (v2, confidence 2/2)
Statistics
Read error : 0
Jitter error (maybe fixed) : 0
Retry sector count : 0
Damaged sector count : 0

Track 05
Filename : /Volumes/El Segundo/Rips/Anita O'Day - The Complete Recordings 1949-1950 (1997) [FLAC]/05 Ain't Misbehavin'.flac

Track gain : -3.12 dB
Peak : 0.949371
CRC32 hash (test run) : 7F0C1277
CRC32 hash : 7F0C1277
CRC32 hash (skip zero) : DA22C5BC
AccurateRip v1 signature : 86A8AC35
AccurateRip v2 signature : 906A2C4A
->Accurately ripped (v2, confidence 2/2)
Statistics
Read error : 0
Jitter error (maybe fixed) : 0
Retry sector count : 0
Damaged sector count : 0

Track 06
Filename : /Volumes/El Segundo/Rips/Anita O'Day - The Complete Recordings 1949-1950 (1997) [FLAC]/06 Penthouse Serenade.flac

Track gain : -2.19 dB
Peak : 0.949341
CRC32 hash (test run) : 6F87605B
CRC32 hash : 6F87605B
CRC32 hash (skip zero) : 9B2686E5
AccurateRip v1 signature : BC9061FC
AccurateRip v2 signature : 44CAB317
->Accurately ripped (v2, confidence 2/2)
Statistics
Read error : 0
Jitter error (maybe fixed) : 0
Retry sector count : 0
Damaged sector count : 0

Track 07
Filename : /Volumes/El Segundo/Rips/Anita O'Day - The Complete Recordings 1949-1950 (1997) [FLAC]/07 Lonesome Road.flac

Track gain : -3.70 dB
Peak : 0.949341
CRC32 hash (test run) : 700A3DC5
CRC32 hash : 700A3DC5
CRC32 hash (skip zero) : 277C1D0F
AccurateRip v1 signature : AD6DA441
AccurateRip v2 signature : 382539F5
->Accurately ripped (v2, confidence 2/2)
Statistics
Read error : 0
Jitter error (maybe fixed) : 0
Retry sector count : 0
Damaged sector count : 0

Track 08
Filename : /Volumes/El Segundo/Rips/Anita O'Day - The Complete Recordings 1949-1950 (1997) [FLAC]/08 I Can't Give You Anything but Love.flac

Track gain : -3.88 dB
Peak : 0.949371
CRC32 hash (test run) : F66AEAF9
CRC32 hash : F66AEAF9
CRC32 hash (skip zero) : 2C4D2EA3
AccurateRip v1 signature : 72074786
AccurateRip v2 signature : D5303766
->Accurately ripped (v2, confidence 2/2)
Statistics
Read error : 0
Jitter error (maybe fixed) : 0
Retry sector count : 0
Damaged sector count : 0

Track 09
Filename : /Volumes/El Segundo/Rips/Anita O'Day - The Complete Recordings 1949-1950 (1997) [FLAC]/09 Rosetta.flac

Track gain : -1.44 dB
Peak : 0.949341
CRC32 hash (test run) : 78EC82A1
CRC32 hash : 78EC82A1
CRC32 hash (skip zero) : B2ECB735
AccurateRip v1 signature : 48203276
AccurateRip v2 signature : 38CB04D6
->Accurately ripped (v2, confidence 2/2)
Statistics
Read error : 0
Jitter error (maybe fixed) : 0
Retry sector count : 0
Damaged sector count : 0

Track 10
Filename : /Volumes/El Segundo/Rips/Anita O'Day - The Complete Recordings 1949-1950 (1997) [FLAC]/10 Jamaica Mon.flac

Track gain : -0.78 dB
Peak : 0.949127
CRC32 hash (test run) : 986B47A8
CRC32 hash : 986B47A8
CRC32 hash (skip zero) : A86BD407
AccurateRip v1 signature : 81A9FE8C
AccurateRip v2 signature : C8A192DF
->Accurately ripped (v2, confidence 2/2)
Statistics
Read error : 0
Jitter error (maybe fixed) : 0
Retry sector count : 0
Damaged sector count : 0

Track 11
Filename : /Volumes/El Segundo/Rips/Anita O'Day - The Complete Recordings 1949-1950 (1997) [FLAC]/11 Don't Kick It Around.flac

Track gain : -0.85 dB
Peak : 0.949432
CRC32 hash (test run) : DC87111B
CRC32 hash : DC87111B
CRC32 hash (skip zero) : A8F3C2B3
AccurateRip v1 signature : 326DA788
AccurateRip v2 signature : 93CE7C6A
->Accurately ripped (v2, confidence 2/2)
Statistics
Read error : 0
Jitter error (maybe fixed) : 0
Retry sector count : 0
Damaged sector count : 0

Track 12
Filename : /Volumes/El Segundo/Rips/Anita O'Day - The Complete Recordings 1949-1950 (1997) [FLAC]/12 So Much of Nothing to Do.flac

Track gain : -1.17 dB
Peak : 0.949402
CRC32 hash (test run) : 10E63993
CRC32 hash : 10E63993
CRC32 hash (skip zero) : 0A157535
AccurateRip v1 signature : EA2BB5F7
AccurateRip v2 signature : 33F75D77
->Accurately ripped (v2, confidence 2/2)
Statistics
Read error : 0
Jitter error (maybe fixed) : 0
Retry sector count : 0
Damaged sector count : 0

Track 13
Filename : /Volumes/El Segundo/Rips/Anita O'Day - The Complete Recordings 1949-1950 (1997) [FLAC]/13 Poor Simple Simon.flac

Track gain : 0.96 dB
Peak : 0.949249
CRC32 hash (test run) : 1F28E3A5
CRC32 hash : 1F28E3A5
CRC32 hash (skip zero) : 9F58F3EC
AccurateRip v1 signature : F4E44F4F
AccurateRip v2 signature : 142F8C02
->Accurately ripped (v2, confidence 2/2)
Statistics
Read error : 0
Jitter error (maybe fixed) : 0
Retry sector count : 0
Damaged sector count : 0

Track 14
Filename : /Volumes/El Segundo/Rips/Anita O'Day - The Complete Recordings 1949-1950 (1997) [FLAC]/14 Blues for Bojangles.flac

Track gain : -0.50 dB
Peak : 0.949371
CRC32 hash (test run) : 68BB95E6
CRC32 hash : 68BB95E6
CRC32 hash (skip zero) : 5D9B278E
AccurateRip v1 signature : 7270A26D
AccurateRip v2 signature : A0AD1426
->Accurately ripped (v2, confidence 2/2)
Statistics
Read error : 0
Jitter error (maybe fixed) : 0
Retry sector count : 0
Damaged sector count : 0

Track 15
Filename : /Volumes/El Segundo/Rips/Anita O'Day - The Complete Recordings 1949-1950 (1997) [FLAC]/15 Your Eyes Are Bigger Than Your Heart.flac

Track gain : -0.34 dB
Peak : 0.949280
CRC32 hash (test run) : 3C7D840D
CRC32 hash : 3C7D840D
CRC32 hash (skip zero) : D5435BB1
AccurateRip v1 signature : 23C5D20F
AccurateRip v2 signature : 47D6AECB
->Accurately ripped (v2, confidence 2/2)
Statistics
Read error : 0
Jitter error (maybe fixed) : 0
Retry sector count : 0
Damaged sector count : 0

Track 16
Filename : /Volumes/El Segundo/Rips/Anita O'Day - The Complete Recordings 1949-1950 (1997) [FLAC]/16 Tennessee Waltz.flac

Track gain : -2.32 dB
Peak : 0.949432
CRC32 hash (test run) : 0F4FB6DF
CRC32 hash : 0F4FB6DF
CRC32 hash (skip zero) : FB229F00
AccurateRip v1 signature : 4A52E24C
AccurateRip v2 signature : 33390D72
->Accurately ripped (v2, confidence 2/2)
Statistics
Read error : 0
Jitter error (maybe fixed) : 0
Retry sector count : 0
Damaged sector count : 0

Track 17
Filename : /Volumes/El Segundo/Rips/Anita O'Day - The Complete Recordings 1949-1950 (1997) [FLAC]/17 Yea Boo.flac

Track gain : -1.88 dB
Peak : 0.949371
CRC32 hash (test run) : 3CA2A1FF
CRC32 hash : 3CA2A1FF
CRC32 hash (skip zero) : AFFBB271
AccurateRip v1 signature : 3A10AFD8
AccurateRip v2 signature : E1717B83
->Accurately ripped (v2, confidence 2/2)
Statistics
Read error : 0
Jitter error (maybe fixed) : 0
Retry sector count : 0
Damaged sector count : 0

Track 18
Filename : /Volumes/El Segundo/Rips/Anita O'Day - The Complete Recordings 1949-1950 (1997) [FLAC]/18 Something I Dreamed Last Night.flac

Track gain : 0.19 dB
Peak : 0.949341
CRC32 hash (test run) : CBA0AF4A
CRC32 hash : CBA0AF4A
CRC32 hash (skip zero) : 07728C02
AccurateRip v1 signature : 4F5A34CD
AccurateRip v2 signature : 7AD3A01C
->Accurately ripped (v2, confidence 2/2)
Statistics
Read error : 0
Jitter error (maybe fixed) : 0
Retry sector count : 0
Damaged sector count : 0

Track 19
Filename : /Volumes/El Segundo/Rips/Anita O'Day - The Complete Recordings 1949-1950 (1997) [FLAC]/19 If I Could Steal You.flac

Track gain : 1.01 dB
Peak : 0.949371
CRC32 hash (test run) : 865AF1BC
CRC32 hash : 865AF1BC
CRC32 hash (skip zero) : AA01BC4E
AccurateRip v1 signature : 5DA8219B
AccurateRip v2 signature : DE3CC08C
->Accurately ripped (v2, confidence 2/2)
Statistics
Read error : 0
Jitter error (maybe fixed) : 0
Retry sector count : 0
Damaged sector count : 0

Track 20
Filename : /Volumes/El Segundo/Rips/Anita O'Day - The Complete Recordings 1949-1950 (1997) [FLAC]/20 You Took Advantage of Me.flac

Track gain : 1.43 dB
Peak : 0.949463
CRC32 hash (test run) : 316DC25B
CRC32 hash : 316DC25B
CRC32 hash (skip zero) : 9E59A84D
AccurateRip v1 signature : 73359B00
AccurateRip v2 signature : 54185868
->Accurately ripped (v2, confidence 2/2)
Statistics
Read error : 0
Jitter error (maybe fixed) : 0
Retry sector count : 0
Damaged sector count : 0

Track 21
Filename : /Volumes/El Segundo/Rips/Anita O'Day - The Complete Recordings 1949-1950 (1997) [FLAC]/21 Once There Lived a Fool.flac

Track gain : 1.28 dB
Peak : 0.949463
CRC32 hash (test run) : 802F102D
CRC32 hash : 802F102D
CRC32 hash (skip zero) : 92457E73
AccurateRip v1 signature : B491C63E
AccurateRip v2 signature : 16AE5718
->Accurately ripped (v2, confidence 2/2)
Statistics
Read error : 0
Jitter error (maybe fixed) : 0
Retry sector count : 0
Damaged sector count : 0

Track 22
Filename : /Volumes/El Segundo/Rips/Anita O'Day - The Complete Recordings 1949-1950 (1997) [FLAC]/22 I Apologize.flac

Track gain : 1.69 dB
Peak : 0.949310
CRC32 hash (test run) : CD3BA4F6
CRC32 hash : CD3BA4F6
CRC32 hash (skip zero) : E0BF7738
AccurateRip v1 signature : E6D7D0EE
AccurateRip v2 signature : BB2FC853
->Accurately ripped (v2, confidence 2/2)
Statistics
Read error : 0
Jitter error (maybe fixed) : 0
Retry sector count : 0
Damaged sector count : 0

Track 23
Filename : /Volumes/El Segundo/Rips/Anita O'Day - The Complete Recordings 1949-1950 (1997) [FLAC]/23 Black Moonlight.flac

Track gain : 1.13 dB
Peak : 0.696228
CRC32 hash (test run) : 6B795B72
CRC32 hash : 6B795B72
CRC32 hash (skip zero) : EB9A4125
AccurateRip v1 signature : 335EBB04
AccurateRip v2 signature : A94E10B5
->Accurately ripped (v2, confidence 2/2)
Statistics
Read error : 0
Jitter error (maybe fixed) : 0
Retry sector count : 0
Damaged sector count : 0

Track 24
Filename : /Volumes/El Segundo/Rips/Anita O'Day - The Complete Recordings 1949-1950 (1997) [FLAC]/24 Lovesick Blues.flac

Track gain : -2.94 dB
Peak : 0.949432
CRC32 hash (test run) : C05710EC
CRC32 hash : C05710EC
CRC32 hash (skip zero) : 7111F8EF
AccurateRip v1 signature : D43F9F2F
AccurateRip v2 signature : 2F773D12
->Accurately ripped (v2, confidence 2/2)
Statistics
Read error : 0
Jitter error (maybe fixed) : 0
Retry sector count : 0
Damaged sector count : 0

No errors occurred

End of status report

-----BEGIN XLD SIGNATURE-----
9KC8zHr3nOwqHAcwJJsrg6oyDN3Mwdg2331KVtBiZNs195Dw9EjshICD7Hp4WreCYRKUOWm1bm4avl7u6_0N.w0Qjx_3F_nPpZHlEiS
-----END XLD SIGNATURE-----
TITLE "The Complete Recordings 1949-1950" 
PERFORMER "Anita O'Day"
REM GENRE "Jazz"
REM DATE "1997"
REM DISCID 6A0F8D18
REM REPLAYGAIN_ALBUM_GAIN -1.72 dB
REM REPLAYGAIN_ALBUM_PEAK 0.949554
FILE "01 - Them There Eyes.flac" WAVE
TRACK 01 AUDIO
TITLE "Them There Eyes"
REM REPLAYGAIN_TRACK_GAIN -4.29 dB
REM REPLAYGAIN_TRACK_PEAK 0.949341
INDEX 01 00:00:00
FILE "02 - Memories of You.flac" WAVE
TRACK 02 AUDIO
TITLE "Memories of You"
REM REPLAYGAIN_TRACK_GAIN -3.21 dB
REM REPLAYGAIN_TRACK_PEAK 0.949341
INDEX 01 00:00:00
FILE "03 - How Come.flac" WAVE
TRACK 03 AUDIO
TITLE "How Come?"
REM REPLAYGAIN_TRACK_GAIN -3.16 dB
REM REPLAYGAIN_TRACK_PEAK 0.949554
INDEX 01 00:00:00
FILE "04 - I Can't Believe That You're in Love with Me.flac" WAVE
TRACK 04 AUDIO
TITLE "I Can't Believe That You're in Love with Me"
REM REPLAYGAIN_TRACK_GAIN -3.65 dB
REM REPLAYGAIN_TRACK_PEAK 0.949371
INDEX 01 00:00:00
FILE "05 - Ain't Misbehavin'.flac" WAVE
TRACK 05 AUDIO
TITLE "Ain't Misbehavin'"
REM REPLAYGAIN_TRACK_GAIN -3.12 dB
REM REPLAYGAIN_TRACK_PEAK 0.949371
INDEX 01 00:00:00
FILE "06 - Penthouse Serenade.flac" WAVE
TRACK 06 AUDIO
TITLE "Penthouse Serenade"
REM REPLAYGAIN_TRACK_GAIN -2.19 dB
REM REPLAYGAIN_TRACK_PEAK 0.949341
INDEX 01 00:00:00
FILE "07 - Lonesome Road.flac" WAVE
TRACK 07 AUDIO
TITLE "Lonesome Road"
REM REPLAYGAIN_TRACK_GAIN -3.70 dB
REM REPLAYGAIN_TRACK_PEAK 0.949341
INDEX 01 00:00:00
FILE "08 - I Can't Give You Anything But Love.flac" WAVE
TRACK 08 AUDIO
TITLE "I Can't Give You Anything But Love"
REM REPLAYGAIN_TRACK_GAIN -3.88 dB
REM REPLAYGAIN_TRACK_PEAK 0.949371
INDEX 01 00:00:00
FILE "09 - Rosetta.flac" WAVE
TRACK 09 AUDIO
TITLE "Rosetta"
REM REPLAYGAIN_TRACK_GAIN -1.44 dB
REM REPLAYGAIN_TRACK_PEAK 0.949341
INDEX 01 00:00:00
FILE "10 - Jamaica Mon.flac" WAVE
TRACK 10 AUDIO
TITLE "Jamaica Mon"
REM REPLAYGAIN_TRACK_GAIN -0.78 dB
REM REPLAYGAIN_TRACK_PEAK 0.949127
INDEX 01 00:00:00
FILE "11 - Don't Kick It Around.flac" WAVE
TRACK 11 AUDIO
TITLE "Don't Kick It Around"
REM REPLAYGAIN_TRACK_GAIN -0.85 dB
REM REPLAYGAIN_TRACK_PEAK 0.949432
INDEX 01 00:00:00
FILE "12 - So Much of Nothing to Do.flac" WAVE
TRACK 12 AUDIO
TITLE "So Much of Nothing to Do"
REM REPLAYGAIN_TRACK_GAIN -1.17 dB
REM REPLAYGAIN_TRACK_PEAK 0.949402
INDEX 01 00:00:00
FILE "13 - Poor Simple Simon.flac" WAVE
TRACK 13 AUDIO
TITLE "Poor Simple Simon"
REM REPLAYGAIN_TRACK_GAIN 0.96 dB
REM REPLAYGAIN_TRACK_PEAK 0.949249
INDEX 01 00:00:00
FILE "14 - Blues for Bojangles.flac" WAVE
TRACK 14 AUDIO
TITLE "Blues for Bojangles"
REM REPLAYGAIN_TRACK_GAIN -0.50 dB
REM REPLAYGAIN_TRACK_PEAK 0.949371
INDEX 01 00:00:00
FILE "15 - Your Eyes Are Bigger Than Your Heart.flac" WAVE
TRACK 15 AUDIO
TITLE "Your Eyes Are Bigger Than Your Heart"
REM REPLAYGAIN_TRACK_GAIN -0.34 dB
REM REPLAYGAIN_TRACK_PEAK 0.949280
INDEX 01 00:00:00
FILE "16 - Tennessee Waltz.flac" WAVE
TRACK 16 AUDIO
TITLE "Tennessee Waltz"
REM REPLAYGAIN_TRACK_GAIN -2.32 dB
REM REPLAYGAIN_TRACK_PEAK 0.949432
INDEX 01 00:00:00
FILE "17 - Yea Boo.flac" WAVE
TRACK 17 AUDIO
TITLE "Yea Boo"
REM REPLAYGAIN_TRACK_GAIN -1.88 dB
REM REPLAYGAIN_TRACK_PEAK 0.949371
INDEX 01 00:00:00
FILE "18 - Something I Dreamed Last Night.flac" WAVE
TRACK 18 AUDIO
TITLE "Something I Dreamed Last Night"
REM REPLAYGAIN_TRACK_GAIN 0.19 dB
REM REPLAYGAIN_TRACK_PEAK 0.949341
INDEX 01 00:00:00
FILE "19 - If I Could Steal You from Somebody Else.flac" WAVE
TRACK 19 AUDIO
TITLE "If I Could Steal You from Somebody Else"
REM REPLAYGAIN_TRACK_GAIN 1.01 dB
REM REPLAYGAIN_TRACK_PEAK 0.949371
INDEX 01 00:00:00
FILE "20 - You Took Advantage of Me.flac" WAVE
TRACK 20 AUDIO
TITLE "You Took Advantage of Me"
REM REPLAYGAIN_TRACK_GAIN 1.43 dB
REM REPLAYGAIN_TRACK_PEAK 0.949463
INDEX 01 00:00:00
FILE "21 - Once There Lived a Fool.flac" WAVE
TRACK 21 AUDIO
TITLE "Once There Lived a Fool"
REM REPLAYGAIN_TRACK_GAIN 1.28 dB
REM REPLAYGAIN_TRACK_PEAK 0.949463
INDEX 01 00:00:00
FILE "22 - I Apologize.flac" WAVE
TRACK 22 AUDIO
TITLE "I Apologize"
REM REPLAYGAIN_TRACK_GAIN 1.69 dB
REM REPLAYGAIN_TRACK_PEAK 0.949310
INDEX 01 00:00:00
FILE "23 - Black Moonlight.flac" WAVE
TRACK 23 AUDIO
TITLE "Black Moonlight"
REM REPLAYGAIN_TRACK_GAIN 1.13 dB
REM REPLAYGAIN_TRACK_PEAK 0.696228
INDEX 01 00:00:00
FILE "24 - Lovesick Blues.flac" WAVE
TRACK 24 AUDIO
TITLE "Lovesick Blues"
REM REPLAYGAIN_TRACK_GAIN -2.94 dB
REM REPLAYGAIN_TRACK_PEAK 0.949432
INDEX 01 00:00:00

Этот торрент недоступен для скачивания без регистрации, однако доступен по публичной magnet-ссылке (источники с публичных трекеров). Перед использованием ссылки прочтите, пожалуйста Пользовательское соглашение, а также как можно дольше оставайтесь на раздаче! Для того, чтобы скачать сам торрент-файл (который видит больше источников), а также для того, чтобы поблагодарить релизера, вам необходимо зарегистрироваться. Если регистрироваться лень - вы можете также попробовать скачать релиз по нашим партнерским ссылкам ниже. Кроме того, зарегистрированным пользователям не показывается всплывающая реклама при скачивании.

[underver.se].t233204.torrent
Трекер: Зарегистрирован   [ 16.01.2022 14:35 ]  
Статус: проверено (by Бишеп at 16.01.2022 14:35)
Поблагодарили: пока никто не поблагодарил...
Тип торрента: публичный - доступные источники с открытых трекеров: 
Размер: 245 MB (занимает 0.05 DVDR, для записи нужно 1 болванка DVDR/RW)
 
 

Яндекс.Метрика powered by Sphinx


В Н И М А Н И Е
Сайт не распространяет и не хранит электронные версии произведений, а лишь бесплатно и без коммерческой выгоды (не требуя взамен платы,
SMS и т.д.) предоставляет доступ к создаваемому пользователями каталогу ссылок на торрент-файлы, которые содержат только списки хеш-сумм.
Убедительная просьба с жалобами обращаться напрямую к пользователю, разместившему торрент файл.

Вверх