Loading...
Error

(Cool Jazz, Piano Jazz) Lennie Tristano - Concert In Copenhagen (1997) [FLAC (Tracks+.Cue), Lossless]

Статистика раздачи
Размер:  183 MB   |    Зарегистрирован:  8 месяцев   |    Скачан:  2 раза

Полного источника не было: 4 месяца 10 дней

Сидов:  0  |  0 KB/s  ]   Личеров:  0  |  0 KB/s  ]

* - сиды/пиры с внешних источников

   
 
Автор Сообщение

Бишеп Пол:Муж

17-Янв-2022 10:04

Lennie Tristano - Concert In Copenhagen

Жанр: Cool Jazz, Piano Jazz
Год выпуска: 1997
Носитель: CD
Производитель диска: Jazz Records - JR12CD
Аудиокодек: FLAC
Тип рипа: Tracks+.CUE
Битрейт аудио: lossless
Продолжительность: 00:39:58


Треклист:
01. Darn That Dream (05:22)
02. Lullaby of the Leaves (03:08)
03. Expressions (04:05)
04. You Don't Know What Love Is (05:56)
05. Tivoli Gardens Swing (02:57)
06. Ghost of a Chance (03:43)
07. It's You or No One (03:27)
08. Imagination (06:31)
09. Tangerine (04:48)

Exact Audio Copy V0.99 prebeta 4 from 23. January 2008 

EAC extraction logfile from 11. December 2008, 11:32

Lennie Tristano / Concert in Copenhagen

Used drive : MATSHITADVD-RAM LF-P567 Adapter: 1 ID: 0

Read mode : Secure
Utilize accurate stream : Yes
Defeat audio cache : Yes
Make use of C2 pointers : No

Read offset correction : 102
Overread into Lead-In and Lead-Out : No
Fill up missing offset samples with silence : Yes
Delete leading and trailing silent blocks : No
Null samples used in CRC calculations : Yes
Used interface : Native Win32 interface for Win NT & 2000
Gap handling : Appended to previous track

Used output format : User Defined Encoder
Selected bitrate : 192 kBit/s
Quality : High
Add ID3 tag : Yes
Command line compressor : C:\Program Files\Exact Audio Copy\Flac\flac.exe
Additional command line options : -8 -A tukey(0.25) -A gauss(0.1875) -b 4096 -V -T "artist=%a" -T "title=%t" -T "album=%g" -T "date=%y" -T "tracknumber=%n" -T "genre=%m" %s --sector-align

TOC of the extracted CD

Track | Start | Length | Start sector | End sector
---------------------------------------------------------
1 | 0:00.00 | 5:22.25 | 0 | 24174
2 | 5:22.25 | 3:08.22 | 24175 | 38296
3 | 8:30.47 | 4:05.00 | 38297 | 56671
4 | 12:35.47 | 5:55.40 | 56672 | 83336
5 | 18:31.12 | 2:57.00 | 83337 | 96611
6 | 21:28.12 | 3:43.00 | 96612 | 113336
7 | 25:11.12 | 3:27.00 | 113337 | 128861
8 | 28:38.12 | 6:31.13 | 128862 | 158199
9 | 35:09.25 | 4:48.25 | 158200 | 179824

Track 1

Filename D:\flac\Lennie Tristano - Concert in Copenhagen\01 - Darn That Dream.wav

Pre-gap length 0:00:02.00

Peak level 70.9 %
Track quality 100.0 %
Test CRC 61C77EE8
Copy CRC 61C77EE8
Copy OK

Track 2

Filename D:\flac\Lennie Tristano - Concert in Copenhagen\02 - Lullaby of the Leaves.wav

Peak level 88.1 %
Track quality 99.9 %
Test CRC A19B9E50
Copy CRC A19B9E50
Copy OK

Track 3

Filename D:\flac\Lennie Tristano - Concert in Copenhagen\03 - Expressions.wav

Peak level 78.9 %
Track quality 100.0 %
Test CRC 0161F880
Copy CRC 0161F880
Copy OK

Track 4

Filename D:\flac\Lennie Tristano - Concert in Copenhagen\04 - You Don't Know What Love Is.wav

Peak level 71.7 %
Track quality 100.0 %
Test CRC 91A20F49
Copy CRC 91A20F49
Copy OK

Track 5

Filename D:\flac\Lennie Tristano - Concert in Copenhagen\05 - Tivoli Gardens Swing.wav

Peak level 80.0 %
Track quality 99.9 %
Test CRC 591168A8
Copy CRC 591168A8
Copy OK

Track 6

Filename D:\flac\Lennie Tristano - Concert in Copenhagen\06 - Ghost of a Chance.wav

Peak level 73.8 %
Track quality 100.0 %
Test CRC 0A5BCDDE
Copy CRC 0A5BCDDE
Copy OK

Track 7

Filename D:\flac\Lennie Tristano - Concert in Copenhagen\07 - It's You or No One.wav

Peak level 89.6 %
Track quality 100.0 %
Test CRC 7210B397
Copy CRC 7210B397
Copy OK

Track 8

Filename D:\flac\Lennie Tristano - Concert in Copenhagen\08 - Imagination.wav

Peak level 84.7 %
Track quality 99.9 %
Test CRC 68FFE630
Copy CRC 68FFE630
Copy OK

Track 9

Filename D:\flac\Lennie Tristano - Concert in Copenhagen\09 - Tangerine.wav

Peak level 70.1 %
Track quality 100.0 %
Test CRC B7E3C24E
Copy CRC B7E3C24E
Copy OK

No errors occurred

End of status report
REM GENRE Jazz 
REM DATE 1997
REM DISCID 51095D09
REM COMMENT "ExactAudioCopy v0.99pb4"
PERFORMER "Lennie Tristano"
TITLE "Concert in Copenhagen"
FILE "01 - Darn That Dream.wav" WAVE
TRACK 01 AUDIO
TITLE "Darn That Dream"
PERFORMER "Lennie Tristano"
INDEX 01 00:00:00
FILE "02 - Lullaby of the Leaves.wav" WAVE
TRACK 02 AUDIO
TITLE "Lullaby of the Leaves"
PERFORMER "Lennie Tristano"
INDEX 01 00:00:00
FILE "03 - Expressions.wav" WAVE
TRACK 03 AUDIO
TITLE "Expressions"
PERFORMER "Lennie Tristano"
INDEX 01 00:00:00
FILE "04 - You Don't Know What Love Is.wav" WAVE
TRACK 04 AUDIO
TITLE "You Don't Know What Love Is"
PERFORMER "Lennie Tristano"
INDEX 01 00:00:00
FILE "05 - Tivoli Gardens Swing.wav" WAVE
TRACK 05 AUDIO
TITLE "Tivoli Gardens Swing"
PERFORMER "Lennie Tristano"
INDEX 01 00:00:00
FILE "06 - Ghost of a Chance.wav" WAVE
TRACK 06 AUDIO
TITLE "Ghost of a Chance"
PERFORMER "Lennie Tristano"
INDEX 01 00:00:00
FILE "07 - It's You or No One.wav" WAVE
TRACK 07 AUDIO
TITLE "It's You or No One"
PERFORMER "Lennie Tristano"
INDEX 01 00:00:00
FILE "08 - Imagination.wav" WAVE
TRACK 08 AUDIO
TITLE "Imagination"
PERFORMER "Lennie Tristano"
INDEX 01 00:00:00
FILE "09 - Tangerine.wav" WAVE
TRACK 09 AUDIO
TITLE "Tangerine"
PERFORMER "Lennie Tristano"
INDEX 01 00:00:00

Этот торрент недоступен для скачивания без регистрации, однако доступен по публичной magnet-ссылке (источники с публичных трекеров). Перед использованием ссылки прочтите, пожалуйста Пользовательское соглашение, а также как можно дольше оставайтесь на раздаче! Для того, чтобы скачать сам торрент-файл (который видит больше источников), а также для того, чтобы поблагодарить релизера, вам необходимо зарегистрироваться. Если регистрироваться лень - вы можете также попробовать скачать релиз по нашим партнерским ссылкам ниже. Кроме того, зарегистрированным пользователям не показывается всплывающая реклама при скачивании.

[underver.se].t233256.torrent
Трекер: Зарегистрирован   [ 17.01.2022 10:04 ]  
Статус: проверено (by Бишеп at 17.01.2022 10:04)
Поблагодарили: пока никто не поблагодарил...
Тип торрента: публичный - доступные источники с открытых трекеров: 
Размер: 183 MB (занимает 0.04 DVDR, для записи нужно 1 болванка DVDR/RW)
 
 

Яндекс.Метрика powered by Sphinx


В Н И М А Н И Е
Сайт не распространяет и не хранит электронные версии произведений, а лишь бесплатно и без коммерческой выгоды (не требуя взамен платы,
SMS и т.д.) предоставляет доступ к создаваемому пользователями каталогу ссылок на торрент-файлы, которые содержат только списки хеш-сумм.
Убедительная просьба с жалобами обращаться напрямую к пользователю, разместившему торрент файл.

Вверх