Loading...
Error

(Classic Rock, Rock & Roll, Electronic) Jive Bunny and the Masremixers - Gold (2021) 3CD [FLAC (Image+.CUE), Lossless]

Статистика раздачи
Размер:  1.35 GB   |    Зарегистрирован:  8 месяцев   |    Скачан:  8 раз

Полного источника не было: 1 месяц 15 дней

Сидов:  0  |  0 KB/s  ]   Личеров:  0  |  0 KB/s  ]

* - сиды/пиры с внешних источников

   
 
Автор Сообщение

Бишеп Пол:Муж

17-Янв-2022 10:26

Jive Bunny and the Masremixers - Gold

Жанр: Classic Rock, Rock & Roll, Electronic
Год выпуска: 2021
Носитель: CD
Производитель диска: Crimson - CRIMCD698
Аудиокодек: FLAC
Тип рипа: Image+.CUE
Битрейт аудио: lossless
Продолжительность: 03:07:30

Треклист:
01. Swing The Mood (04:44)
02. That's What I Like (03:59)
03. That Sounds Good to Me (07:10)
04. Over To You John (Here We Go Again) (04:33)
05. Soul Banana (05:40)
06. Hot Summer Salsa (06:22)
07. Pop Back To The Seventies (10:00)
08. Best Of British (04:30)
09. Hop Around The Clock (07:45)
10. Hopping Mad (05:55)

Exact Audio Copy V1.1 from 23. June 2015 

EAC extraction logfile from 3. January 2022, 21:55

Jive Bunny And The Mastermixers / Gold - CD1

Used drive : MATSHITADVD+-RW SW830 Adapter: 1 ID: 0

Read mode : Secure
Utilize accurate stream : Yes
Defeat audio cache : Yes
Make use of C2 pointers : No

Read offset correction : 6
Overread into Lead-In and Lead-Out : No
Fill up missing offset samples with silence : Yes
Delete leading and trailing silent blocks : No
Null samples used in CRC calculations : Yes
Used interface : Native Win32 interface for Win NT & 2000

Used output format : User Defined Encoder
Selected bitrate : 768 kBit/s
Quality : High
Add ID3 tag : No
Command line compressor : C:\Program Files (x86)\Exact Audio Copy\FLAC\FLAC.EXE
Additional command line options : -6 -V -T "ARTIST=%artist%" -T "TITLE=%title%" -T "ALBUM=%albumtitle%" -T "DATE=%year%" -T "TRACKNUMBER=%tracknr%" -T "GENRE=%genre%" -T "COMMENT=%comment%" -T "BAND=%albuminterpret%" -T "ALBUMARTIST=%albuminterpret%" -T "COMPOSER=%composer%" %haslyrics%--tag-from-file=LYRICS="%lyricsfile%"%haslyrics% -T "DISCNUMBER=%cdnumber%" -T "TOTALDISCS=%totalcds%" -T "TOTALTRACKS=%numtracks%" %hascover%--picture="%coverfile%"%hascover% %source% -o %dest%

TOC of the extracted CD

Track | Start | Length | Start sector | End sector
---------------------------------------------------------
1 | 0:00.00 | 4:44.71 | 0 | 21370
2 | 4:44.71 | 3:59.15 | 21371 | 39310
3 | 8:44.11 | 7:10.33 | 39311 | 71593
4 | 15:54.44 | 4:33.18 | 71594 | 92086
5 | 20:27.62 | 5:40.64 | 92087 | 117650
6 | 26:08.51 | 6:22.26 | 117651 | 146326
7 | 32:31.02 | 10:00.02 | 146327 | 191328
8 | 42:31.04 | 4:30.20 | 191329 | 211598
9 | 47:01.24 | 7:45.16 | 211599 | 246489
10 | 54:46.40 | 5:55.55 | 246490 | 273169

Range status and errors

Selected range

Filename C:\Users\Boris\Desktop\lossless-galaxy.ru\JivGol\CD1\Jive Bunny And The Mastermixers - Gold - CD1.wav

Peak level 96.5 %
Extraction speed 7.3 X
Range quality 100.0 %
Test CRC A4BB1BC3
Copy CRC A4BB1BC3
Copy OK

No errors occurred

AccurateRip summary
Track 1 not present in database
Track 2 not present in database
Track 3 not present in database
Track 4 not present in database
Track 5 not present in database
Track 6 not present in database
Track 7 not present in database
Track 8 not present in database
Track 9 not present in database
Track 10 not present in database
None of the tracks are present in the AccurateRip database

End of status report

---- CUETools DB Plugin V2.1.6

[CTDB TOCID: 1M5gR5kUYqafNCjVp4c5la41Jh4-] found
Submit result: 1M5gR5kUYqafNCjVp4c5la41Jh4- has been confirmed
Track | CTDB Status
1 | (2/2) Accurately ripped
2 | (2/2) Accurately ripped
3 | (2/2) Accurately ripped
4 | (2/2) Accurately ripped
5 | (2/2) Accurately ripped
6 | (2/2) Accurately ripped
7 | (2/2) Accurately ripped
8 | (2/2) Accurately ripped
9 | (2/2) Accurately ripped
10 | (2/2) Accurately ripped

==== Log checksum E7EAA6EDB5A28FF6E9B87A88DCC3D23408E1480A627FE926BD245E3546D560EB ====
REM GENRE medley 
REM DATE 2021
REM DISCID 930E3A0A
REM COMMENT "ExactAudioCopy v1.1"
PERFORMER "Jive Bunny And The Mastermixers"
TITLE "Gold - CD1"
FILE "Jive Bunny And The Mastermixers - Gold - CD1.flac" WAVE
TRACK 01 AUDIO
TITLE "Swing The Mood"
PERFORMER "Jive Bunny And The Mastermixers"
FLAGS DCP
INDEX 01 00:00:00
TRACK 02 AUDIO
TITLE "That's What I Like"
PERFORMER "Jive Bunny And The Mastermixers"
FLAGS DCP
INDEX 01 04:44:71
TRACK 03 AUDIO
TITLE "That Sounds Good to Me"
PERFORMER "Jive Bunny And The Mastermixers"
FLAGS DCP
INDEX 01 08:44:11
TRACK 04 AUDIO
TITLE "Over To You John (Here We Go Again)"
PERFORMER "Jive Bunny And The Mastermixers"
FLAGS DCP
INDEX 01 15:54:44
TRACK 05 AUDIO
TITLE "Soul Banana"
PERFORMER "Jive Bunny And The Mastermixers"
FLAGS DCP
INDEX 01 20:27:62
TRACK 06 AUDIO
TITLE "Hot Summer Salsa"
PERFORMER "Jive Bunny And The Mastermixers"
FLAGS DCP
INDEX 01 26:08:51
TRACK 07 AUDIO
TITLE "Pop Back To The Seventies"
PERFORMER "Jive Bunny And The Mastermixers"
FLAGS DCP
INDEX 01 32:31:02
TRACK 08 AUDIO
TITLE "Best Of British"
PERFORMER "Jive Bunny And The Mastermixers"
FLAGS DCP
INDEX 01 42:31:04
TRACK 09 AUDIO
TITLE "Hop Around The Clock"
PERFORMER "Jive Bunny And The Mastermixers"
FLAGS DCP
INDEX 01 47:01:24
TRACK 10 AUDIO
TITLE "Hopping Mad"
PERFORMER "Jive Bunny And The Mastermixers"
FLAGS DCP
INDEX 01 54:46:40
Треклист:
01. Swing Another Mood (03:13)
02. Can Can You Party (04:13)
03. Rock The Party (09:01)
04. Disco Stomper (10:12)
05. Swing The Sixties (08:20)
06. The Jukebox Story (05:31)
07. Fun At The Flicks (09:07)
08. The Roaring Twenties (05:19)
09. The Rock 'N' Roller (04:21)
10. The Crazy Party Mix (05:28)

Exact Audio Copy V1.1 from 23. June 2015 

EAC extraction logfile from 4. January 2022, 14:35

Jive Bunny And The Mastermixers / Gold - CD2

Used drive : MATSHITADVD+-RW SW830 Adapter: 1 ID: 0

Read mode : Secure
Utilize accurate stream : Yes
Defeat audio cache : Yes
Make use of C2 pointers : No

Read offset correction : 6
Overread into Lead-In and Lead-Out : No
Fill up missing offset samples with silence : Yes
Delete leading and trailing silent blocks : No
Null samples used in CRC calculations : Yes
Used interface : Native Win32 interface for Win NT & 2000

Used output format : User Defined Encoder
Selected bitrate : 768 kBit/s
Quality : High
Add ID3 tag : No
Command line compressor : C:\Program Files (x86)\Exact Audio Copy\FLAC\FLAC.EXE
Additional command line options : -6 -V -T "ARTIST=%artist%" -T "TITLE=%title%" -T "ALBUM=%albumtitle%" -T "DATE=%year%" -T "TRACKNUMBER=%tracknr%" -T "GENRE=%genre%" -T "COMMENT=%comment%" -T "BAND=%albuminterpret%" -T "ALBUMARTIST=%albuminterpret%" -T "COMPOSER=%composer%" %haslyrics%--tag-from-file=LYRICS="%lyricsfile%"%haslyrics% -T "DISCNUMBER=%cdnumber%" -T "TOTALDISCS=%totalcds%" -T "TOTALTRACKS=%numtracks%" %hascover%--picture="%coverfile%"%hascover% %source% -o %dest%

TOC of the extracted CD

Track | Start | Length | Start sector | End sector
---------------------------------------------------------
1 | 0:00.00 | 3:13.62 | 0 | 14536
2 | 3:13.62 | 4:13.46 | 14537 | 33557
3 | 7:27.33 | 9:01.17 | 33558 | 74149
4 | 16:28.50 | 10:12.38 | 74150 | 120087
5 | 26:41.13 | 8:20.59 | 120088 | 157646
6 | 35:01.72 | 5:31.25 | 157647 | 182496
7 | 40:33.22 | 9:07.40 | 182497 | 223561
8 | 49:40.62 | 5:19.65 | 223562 | 247551
9 | 55:00.52 | 4:21.53 | 247552 | 267179
10 | 59:22.30 | 5:28.62 | 267180 | 291841

Range status and errors

Selected range

Filename C:\Users\Boris\Desktop\lossless-galaxy.ru\JivGol\CD2\Jive Bunny And The Mastermixers - Gold - CD2.wav

Peak level 94.4 %
Extraction speed 7.3 X
Range quality 100.0 %
Test CRC D7FCBB97
Copy CRC D7FCBB97
Copy OK

No errors occurred

AccurateRip summary
Track 1 not present in database
Track 2 not present in database
Track 3 not present in database
Track 4 not present in database
Track 5 not present in database
Track 6 not present in database
Track 7 not present in database
Track 8 not present in database
Track 9 not present in database
Track 10 not present in database
None of the tracks are present in the AccurateRip database

End of status report

---- CUETools DB Plugin V2.1.6

[CTDB TOCID: Wyrb3kPqmLQIVlrPaQQRLjOrqEQ-] found
Submit result: Wyrb3kPqmLQIVlrPaQQRLjOrqEQ- has been confirmed
Track | CTDB Status
1 | (2/2) Accurately ripped
2 | (2/2) Accurately ripped
3 | (2/2) Accurately ripped
4 | (2/2) Accurately ripped
5 | (2/2) Accurately ripped
6 | (2/2) Accurately ripped
7 | (2/2) Accurately ripped
8 | (2/2) Accurately ripped
9 | (2/2) Accurately ripped
10 | (2/2) Accurately ripped

==== Log checksum 01E01F6D967142B76B0B7617B6CD91A8C2BEDE7749D2181E5C2B6A3007A0FCF3 ====
REM DISCID 810F330A 
REM COMMENT "ExactAudioCopy v1.1"
PERFORMER "Jive Bunny And The Mastermixers"
TITLE "Gold - CD2"
FILE "Jive Bunny And The Mastermixers - Gold - CD2.flac" WAVE
TRACK 01 AUDIO
TITLE "Swing Another Mood"
PERFORMER "Jive Bunny And The Mastermixers"
FLAGS DCP
INDEX 01 00:00:00
TRACK 02 AUDIO
TITLE "Can Can You Party"
PERFORMER "Jive Bunny And The Mastermixers"
FLAGS DCP
INDEX 01 03:13:62
TRACK 03 AUDIO
TITLE "Rock The Party"
PERFORMER "Jive Bunny And The Mastermixers"
FLAGS DCP
INDEX 01 07:27:33
TRACK 04 AUDIO
TITLE "Disco Stomper"
PERFORMER "Jive Bunny And The Mastermixers"
FLAGS DCP
INDEX 01 16:28:50
TRACK 05 AUDIO
TITLE "Swing The Sixties"
PERFORMER "Jive Bunny And The Mastermixers"
FLAGS DCP
INDEX 01 26:41:13
TRACK 06 AUDIO
TITLE "The Jukebox Story"
PERFORMER "Jive Bunny And The Mastermixers"
FLAGS DCP
INDEX 01 35:01:72
TRACK 07 AUDIO
TITLE "Fun At The Flicks"
PERFORMER "Jive Bunny And The Mastermixers"
FLAGS DCP
INDEX 01 40:33:22
TRACK 08 AUDIO
TITLE "The Roaring Twenties"
PERFORMER "Jive Bunny And The Mastermixers"
FLAGS DCP
INDEX 01 49:40:62
TRACK 09 AUDIO
TITLE "The Rock 'N' Roller"
PERFORMER "Jive Bunny And The Mastermixers"
FLAGS DCP
INDEX 01 55:00:52
TRACK 10 AUDIO
TITLE "The Crazy Party Mix"
PERFORMER "Jive Bunny And The Mastermixers"
FLAGS DCP
INDEX 01 59:22:30
Треклист:
01. Let's Swing Again (04:20)
02. Jive Bunny Goes To Detroit (09:33)
03. The Lovers' Mix (06:11)
04. The Glenn Miller Medley (03:51)
05. The JB Shuffle (04:00)
06. Rock 'N' Roll Beethoven (05:29)
07. Swingin' Horns (05:23)
08. Mix Up The 80s (10:55)
09. Crazy Party Dances (07:54)
10. Let's Party 2008 (04:16)

Exact Audio Copy V1.1 from 23. June 2015 

EAC extraction logfile from 4. January 2022, 15:14

Jive Bunny And The Mastermixers / Gold - CD3

Used drive : MATSHITADVD+-RW SW830 Adapter: 1 ID: 0

Read mode : Secure
Utilize accurate stream : Yes
Defeat audio cache : Yes
Make use of C2 pointers : No

Read offset correction : 6
Overread into Lead-In and Lead-Out : No
Fill up missing offset samples with silence : Yes
Delete leading and trailing silent blocks : No
Null samples used in CRC calculations : Yes
Used interface : Native Win32 interface for Win NT & 2000

Used output format : User Defined Encoder
Selected bitrate : 768 kBit/s
Quality : High
Add ID3 tag : No
Command line compressor : C:\Program Files (x86)\Exact Audio Copy\FLAC\FLAC.EXE
Additional command line options : -6 -V -T "ARTIST=%artist%" -T "TITLE=%title%" -T "ALBUM=%albumtitle%" -T "DATE=%year%" -T "TRACKNUMBER=%tracknr%" -T "GENRE=%genre%" -T "COMMENT=%comment%" -T "BAND=%albuminterpret%" -T "ALBUMARTIST=%albuminterpret%" -T "COMPOSER=%composer%" %haslyrics%--tag-from-file=LYRICS="%lyricsfile%"%haslyrics% -T "DISCNUMBER=%cdnumber%" -T "TOTALDISCS=%totalcds%" -T "TOTALTRACKS=%numtracks%" %hascover%--picture="%coverfile%"%hascover% %source% -o %dest%

TOC of the extracted CD

Track | Start | Length | Start sector | End sector
---------------------------------------------------------
1 | 0:00.00 | 4:20.53 | 0 | 19552
2 | 4:20.53 | 9:33.74 | 19553 | 62601
3 | 13:54.52 | 6:11.16 | 62602 | 90442
4 | 20:05.68 | 3:51.11 | 90443 | 107778
5 | 23:57.04 | 4:00.65 | 107779 | 125843
6 | 27:57.69 | 5:29.30 | 125844 | 150548
7 | 33:27.24 | 5:23.56 | 150549 | 174829
8 | 38:51.05 | 10:55.54 | 174830 | 224008
9 | 49:46.59 | 7:54.31 | 224009 | 259589
10 | 57:41.15 | 4:16.16 | 259590 | 278805

Range status and errors

Selected range

Filename C:\Users\Boris\Desktop\lossless-galaxy.ru\JivGol\CD3\Jive Bunny And The Mastermixers - Gold - CD3.wav

Peak level 99.9 %
Extraction speed 7.2 X
Range quality 99.9 %
Test CRC 7A78B19B
Copy CRC 7A78B19B
Copy OK

No errors occurred

AccurateRip summary
Track 1 not present in database
Track 2 not present in database
Track 3 not present in database
Track 4 not present in database
Track 5 not present in database
Track 6 not present in database
Track 7 not present in database
Track 8 not present in database
Track 9 not present in database
Track 10 not present in database
None of the tracks are present in the AccurateRip database

End of status report

---- CUETools DB Plugin V2.1.6

[CTDB TOCID: 546PRLQGzqqwHmXp4QDJoQ8VwkA-] found
Submit result: 546PRLQGzqqwHmXp4QDJoQ8VwkA- has been confirmed
Track | CTDB Status
1 | (2/2) Accurately ripped
2 | (2/2) Accurately ripped
3 | (2/2) Accurately ripped
4 | (2/2) Accurately ripped
5 | (2/2) Accurately ripped
6 | (2/2) Accurately ripped
7 | (2/2) Accurately ripped
8 | (2/2) Accurately ripped
9 | (2/2) Accurately ripped
10 | (2/2) Accurately ripped

==== Log checksum 99ACFC0E6D9409EC9E6D4F9B7AF2EDFAA58F01E146360F686CE160C948D736C7 ====
REM DISCID 900E850A 
REM COMMENT "ExactAudioCopy v1.1"
PERFORMER "Jive Bunny And The Mastermixers"
TITLE "Gold - CD3"
FILE "Jive Bunny And The Mastermixers - Gold - CD3.flac" WAVE
TRACK 01 AUDIO
TITLE "Let's Swing Again"
PERFORMER "Jive Bunny And The Mastermixers"
FLAGS DCP
INDEX 01 00:00:00
TRACK 02 AUDIO
TITLE "Jive Bunny Goes To Detroit"
PERFORMER "Jive Bunny And The Mastermixers"
FLAGS DCP
INDEX 01 04:20:53
TRACK 03 AUDIO
TITLE "The Lovers' Mix"
PERFORMER "Jive Bunny And The Mastermixers"
FLAGS DCP
INDEX 01 13:54:52
TRACK 04 AUDIO
TITLE "The Glenn Miller Medley"
PERFORMER "Jive Bunny And The Mastermixers"
FLAGS DCP
INDEX 01 20:05:68
TRACK 05 AUDIO
TITLE "The JB Shuffle"
PERFORMER "Jive Bunny And The Mastermixers"
FLAGS DCP
INDEX 01 23:57:04
TRACK 06 AUDIO
TITLE "Rock 'N' Roll Beethoven"
PERFORMER "Jive Bunny And The Mastermixers"
FLAGS DCP
INDEX 01 27:57:69
TRACK 07 AUDIO
TITLE "Swingin' Horns"
PERFORMER "Jive Bunny And The Mastermixers"
FLAGS DCP
INDEX 01 33:27:24
TRACK 08 AUDIO
TITLE "Mix Up The 80s"
PERFORMER "Jive Bunny And The Mastermixers"
FLAGS DCP
INDEX 01 38:51:05
TRACK 09 AUDIO
TITLE "Crazy Party Dances"
PERFORMER "Jive Bunny And The Mastermixers"
FLAGS DCP
INDEX 01 49:46:59
TRACK 10 AUDIO
TITLE "Let's Party 2008"
PERFORMER "Jive Bunny And The Mastermixers"
FLAGS DCP
INDEX 01 57:41:15

Этот торрент недоступен для скачивания без регистрации, однако доступен по публичной magnet-ссылке (источники с публичных трекеров). Перед использованием ссылки прочтите, пожалуйста Пользовательское соглашение, а также как можно дольше оставайтесь на раздаче! Для того, чтобы скачать сам торрент-файл (который видит больше источников), а также для того, чтобы поблагодарить релизера, вам необходимо зарегистрироваться. Если регистрироваться лень - вы можете также попробовать скачать релиз по нашим партнерским ссылкам ниже. Кроме того, зарегистрированным пользователям не показывается всплывающая реклама при скачивании.

[underver.se].t233258.torrent
Трекер: Зарегистрирован   [ 17.01.2022 10:26 ]  
Статус: проверено (by Бишеп at 17.01.2022 10:26)
Поблагодарили: пока никто не поблагодарил...
Тип торрента: публичный - доступные источники с открытых трекеров: 
Размер: 1.35 GB (занимает 0.31 DVDR, для записи нужно 1 болванка DVDR/RW)
 
 

Яндекс.Метрика powered by Sphinx


В Н И М А Н И Е
Сайт не распространяет и не хранит электронные версии произведений, а лишь бесплатно и без коммерческой выгоды (не требуя взамен платы,
SMS и т.д.) предоставляет доступ к создаваемому пользователями каталогу ссылок на торрент-файлы, которые содержат только списки хеш-сумм.
Убедительная просьба с жалобами обращаться напрямую к пользователю, разместившему торрент файл.

Вверх