Loading...
Error

(Progressive Rock) Dogma – Album (1992) [FLAC (Image+.cue), lossless]

Статистика раздачи
Размер:  335 MB   |    Зарегистрирован:  8 месяцев   |    Скачан:  0 раз

Полного источника не было: 7 месяцев

Сидов:  0  |  0 KB/s  ]   Личеров:  0  |  0 KB/s  ]

* - сиды/пиры с внешних источников

   
 
Автор Сообщение

Rsa2 Пол:Муж

17-Янв-2022 11:09

Dogma – Album

Жанр: Progressive Rock
Год выпуска: 1992
Носитель: CD
Производитель: Brazil Progressive Rock Worldwide – PRW006
Аудиокодек: FLAC
Тип рипа: Image+.cue
Битрейт: lossless
Продолжительность: 00:57:56

Треклист:

01 Beginnings 6:23
02 Clouds 6:27
03 Night Winds 6:26
04 Seven Angels In Hell 8:13
05 Movements 8:09
06 A Season For Unions 22:08
I Overture
II The Fear Of The First Time
III After The Daybreak
IV We've Still Here
V Tribute
VI Finale
Exact Audio Copy V0.99 prebeta 5 from 4. May 2009 

Отчёт EAC об извлечении, выполненном 18. июня 2011, 18:55

Dogma / Dogma

Дисковод: SONY CD-RW CRX230EE Adapter: 0 ID: 0

Режим чтения : Достоверность
Использование точного потока : Да
Отключение кэша аудио : Да
Использование указателей C2 : Нет

Коррекция смещения при чтении : 6
Способность читать области Lead-in и Lead-out : Нет
Заполнение пропущенных сэмплов тишиной : Да
Удаление блоков с тишиной в начале и конце : Нет
При вычислениях CRC использовались нулевые сэмплы : Да
Интерфейс : Установленный внешний ASPI-интерфейс

Выходной формат : Пользовательский кодировщик
Выбранный битрейт : 32 kBit/s
Качество : Низкий
Добавление ID3-тэга : Нет
Утилита сжатия : C:\Program Files\Exact Audio Copy\Flac\flac.exe
Дополнительные параметры : -8 -V %s

TOC извлечённого CD

Трек | Старт | Длительность | Начальный сектор | Конечный сектор
---------------------------------------------------------------------
1 | 0:00.32 | 6:23.50 | 32 | 28806
2 | 6:24.07 | 6:27.68 | 28807 | 57899
3 | 12:52.00 | 6:28.32 | 57900 | 87031
4 | 19:20.32 | 8:15.15 | 87032 | 124171
5 | 27:35.47 | 8:10.43 | 124172 | 160964
6 | 35:46.15 | 22:11.12 | 160965 | 260801

Характеристики диапазона извлечения и сообщения об ошибках

Выбранный диапазон

Имя файла C:\Program Files\DC++\Faili\Dogma - Dogma (1992)\Dogma - Dogma.wav

Пиковый уровень 95.8 %
Качество диапазона 99.9 %
CRC теста 8D337484
CRC копии 8D337484
Копирование... OK

Ошибок не произошло

AccurateRip: сводка
Трек 1 точное извлечение (доверие 2) [3BAFF37C]
Трек 2 точное извлечение (доверие 2) [7F7E1794]
Трек 3 точное извлечение (доверие 2) [9330FA83]
Трек 4 точное извлечение (доверие 2) [6865D7B1]
Трек 5 точное извлечение (доверие 2) [6637E79D]
Трек 6 точное извлечение (доверие 2) [95344164]
Все треки извлечены точно

Конец отчёта
REM GENRE "Progressive Rock" 
REM DATE 1992
REM DISCID 510D9506
REM COMMENT "ExactAudioCopy v0.99pb5"
PERFORMER "Dogma"
TITLE "Dogma"
FILE "Dogma - Dogma.flac" WAVE
TRACK 01 AUDIO
TITLE "Beginnings"
PERFORMER "Dogma"
INDEX 00 00:00:00
INDEX 01 00:00:32
TRACK 02 AUDIO
TITLE "Clouds"
PERFORMER "Dogma"
INDEX 00 06:22:67
INDEX 01 06:24:07
TRACK 03 AUDIO
TITLE "Night Winds"
PERFORMER "Dogma"
INDEX 00 12:50:40
INDEX 01 12:52:00
TRACK 04 AUDIO
TITLE "Seven Angels In Hell"
PERFORMER "Dogma"
INDEX 00 19:18:22
INDEX 01 19:20:32
TRACK 05 AUDIO
TITLE "Movements"
PERFORMER "Dogma"
INDEX 00 27:33:48
INDEX 01 27:35:47
TRACK 06 AUDIO
TITLE "A Season For Unions"
PERFORMER "Dogma"
INDEX 01 35:46:15

Этот торрент недоступен для скачивания без регистрации, однако доступен по публичной magnet-ссылке (источники с публичных трекеров). Перед использованием ссылки прочтите, пожалуйста Пользовательское соглашение, а также как можно дольше оставайтесь на раздаче! Для того, чтобы скачать сам торрент-файл (который видит больше источников), а также для того, чтобы поблагодарить релизера, вам необходимо зарегистрироваться. Если регистрироваться лень - вы можете также попробовать скачать релиз по нашим партнерским ссылкам ниже. Кроме того, зарегистрированным пользователям не показывается всплывающая реклама при скачивании.

[underver.se].t233261.torrent
Трекер: Зарегистрирован   [ 17.01.2022 11:09 ]  
Статус: проверено (by Бишеп at 17.01.2022 12:04)
Поблагодарили: пока никто не поблагодарил...
Тип торрента: публичный - доступные источники с открытых трекеров: 
Размер: 335 MB (занимает 0.07 DVDR, для записи нужно 1 болванка DVDR/RW)
 
 

Яндекс.Метрика powered by Sphinx


В Н И М А Н И Е
Сайт не распространяет и не хранит электронные версии произведений, а лишь бесплатно и без коммерческой выгоды (не требуя взамен платы,
SMS и т.д.) предоставляет доступ к создаваемому пользователями каталогу ссылок на торрент-файлы, которые содержат только списки хеш-сумм.
Убедительная просьба с жалобами обращаться напрямую к пользователю, разместившему торрент файл.

Вверх